<?xml version="1.0" standalone="no"?>
<!DOCTYPE svg PUBLIC "-//W3C//DTD SVG 1.1//EN" "http://www.w3.org/Graphics/SVG/1.1/DTD/svg11.dtd" >
<svg xmlns="http://www.w3.org/2000/svg" xmlns:xlink="http://www.w3.org/1999/xlink" version="1.1">
<metadata>
Created by FontForge 20170731 at Sun Apr  9 02:53:52 2023
 By Aleksey,,,
Copyright 2004 Monotype Imaging, Inc. All rights reserved.
</metadata>
<defs>
<font id="NeoSansPro-Light" horiz-adv-x="1187" >
  <font-face 
    font-family="Neo Sans Pro Light"
    font-weight="300"
    font-stretch="normal"
    units-per-em="2048"
    panose-1="2 11 3 4 3 5 4 4 2 4"
    ascent="1567"
    descent="-481"
    x-height="1100"
    cap-height="1522"
    bbox="-178 -442 2632 2007"
    underline-thickness="86"
    underline-position="-243"
    unicode-range="U+0020-FB04"
  />
<missing-glyph horiz-adv-x="1024" 
d="M25 0v1362h972v-1362h-972zM180 1266l332 -498l330 498h-662zM123 1178v-992q0 -1 82.5 123t164.5 249l83 124zM901 1178l-332 -496l332 -498v994zM842 98l-330 496l-332 -496h662z" />
    <glyph glyph-name="f_b" unicode="fb" horiz-adv-x="1804" 
d="M915 1452h-294q-126 0 -166.5 -29.5t-40.5 -132.5v-190h243q17 0 28 -9t11 -24v-18q0 -15 -11 -24t-28 -9h-243v-977q0 -15 -11 -27t-26 -12h-15q-17 0 -27.5 11.5t-10.5 27.5v977h-203q-17 0 -28 9t-11 24v18q0 15 11 24t28 9h203v190q0 139 66 190.5t226 51.5
q238 0 355 -6q15 0 25 -12t10 -27v-408q141 31 284 31q200 0 301 -123t101 -366v-136q0 -232 -99 -364.5t-303 -132.5q-149 0 -344 39q-19 4 -25 12t-6 27v1386zM1602 485v136q0 207 -73.5 308t-238.5 101q-157 0 -284 -26v-910q160 -26 284 -26q166 0 239 105.5t73 311.5z
" />
    <glyph glyph-name="f_f_b" unicode="ffb" horiz-adv-x="2396" 
d="M915 1016h-501v-977q0 -15 -11 -27t-26 -12h-15q-17 0 -27.5 11.5t-10.5 27.5v977h-203q-17 0 -28 9t-11 24v18q0 15 11 24t28 9h203v190q0 128 59 185t172 57q67 0 107 -6q38 -5 38 -33v-14q0 -27 -43 -27h-102q-74 0 -107.5 -36t-33.5 -126v-190h501v190
q0 139 66.5 190.5t226.5 51.5q238 0 355 -6q15 0 24.5 -11.5t9.5 -27.5v-408q141 31 285 31q200 0 301 -123t101 -366v-136q0 -232 -99 -364.5t-303 -132.5q-149 0 -344 39q-19 4 -25 12t-6 27v1386h-295q-125 0 -165.5 -29.5t-40.5 -132.5v-190h243q17 0 28 -9t11 -24v-18
q0 -15 -11 -24t-28 -9h-243v-977q0 -15 -11 -27t-26 -12h-15q-17 0 -28 11.5t-11 27.5v977zM2193 485v136q0 208 -73 308.5t-238 100.5q-158 0 -285 -26v-910q160 -26 285 -26q166 0 238.5 105t72.5 312z" />
    <glyph glyph-name="f_f_h" unicode="ffh" horiz-adv-x="2398" 
d="M915 1016h-501v-977q0 -15 -11 -27t-26 -12h-15q-17 0 -27.5 11.5t-10.5 27.5v977h-203q-17 0 -28 9t-11 24v18q0 15 11 24t28 9h203v190q0 128 59 185t172 57q67 0 107 -6q38 -5 38 -33v-14q0 -27 -43 -27h-102q-74 0 -107.5 -36t-33.5 -126v-190h501v190
q0 139 66.5 190.5t226.5 51.5q277 0 355 -6q21 -1 27.5 -11t6.5 -28v-414q148 37 277 37q104 0 181 -29t122 -82.5t66.5 -123t21.5 -158.5v-690q0 -16 -9.5 -27.5t-25.5 -11.5h-20q-14 0 -23.5 11.5t-9.5 27.5v690q0 156 -71.5 234.5t-231.5 78.5q-152 0 -277 -37v-966
q0 -16 -9.5 -27.5t-24.5 -11.5h-21q-15 0 -25 12t-10 27v1425h-295q-125 0 -165.5 -29.5t-40.5 -132.5v-190h243q17 0 28 -9t11 -24v-18q0 -15 -11 -24t-28 -9h-243v-977q0 -15 -11 -27t-26 -12h-15q-17 0 -28 11.5t-11 27.5v977z" />
    <glyph glyph-name="f_f_j" unicode="ffj" horiz-adv-x="1781" 
d="M1618 -176q0 -126 -51 -174.5t-160 -48.5q-39 0 -86 6q-21 3 -28 9t-7 19v19q0 24 43 24h78q70 0 95.5 28.5t25.5 117.5v1192h-522v-977q0 -15 -11 -27t-26 -12h-15q-17 0 -28 11.5t-11 27.5v977h-501v-977q0 -15 -11 -27t-26 -12h-15q-17 0 -27.5 11.5t-10.5 27.5v977
h-203q-17 0 -28 9t-11 24v18q0 15 11 24t28 9h203v190q0 128 59 185t172 57q67 0 107 -6q38 -5 38 -33v-14q0 -27 -43 -27h-102q-74 0 -107.5 -36t-33.5 -126v-190h501v190q0 128 59.5 185t172.5 57q65 0 106 -6q39 -5 39 -33v-14q0 -27 -43 -27h-102q-74 0 -107.5 -36
t-33.5 -126v-190h577q16 0 25.5 -11.5t9.5 -27.5v-1237zM1618 1341q0 -17 -11.5 -27.5t-27.5 -10.5h-12q-16 0 -27.5 10.5t-11.5 27.5v152q0 15 12 27t27 12h12q15 0 27 -12t12 -27v-152z" />
    <glyph glyph-name="f_f_k" unicode="ffk" horiz-adv-x="2275" 
d="M915 1016h-501v-977q0 -15 -11 -27t-26 -12h-15q-17 0 -27.5 11.5t-10.5 27.5v977h-203q-17 0 -28 9t-11 24v18q0 15 11 24t28 9h203v190q0 128 59 185t172 57q67 0 107 -6q38 -5 38 -33v-14q0 -27 -43 -27h-102q-74 0 -107.5 -36t-33.5 -126v-190h501v190
q0 139 66.5 190.5t226.5 51.5q277 0 355 -6q21 -1 27.5 -11t6.5 -28v-866l504 471q21 18 49 18q35 0 42.5 -24.5t-15.5 -43.5l-502 -458l504 -533q19 -20 11 -41.5t-36 -21.5q-37 0 -61 24l-496 531v-516q0 -15 -11.5 -27t-26.5 -12h-13q-15 0 -27 12t-12 27v1425h-295
q-125 0 -165.5 -29.5t-40.5 -132.5v-190h243q17 0 28 -9t11 -24v-18q0 -15 -11 -24t-28 -9h-243v-977q0 -15 -11 -27t-26 -12h-15q-17 0 -28 11.5t-11 27.5v977z" />
    <glyph glyph-name="f_h" unicode="fh" horiz-adv-x="1806" 
d="M1006 1487v-414q148 37 276 37q104 0 181 -29t122 -82.5t66.5 -123t21.5 -158.5v-690q0 -16 -9.5 -27.5t-25.5 -11.5h-20q-14 0 -23.5 11.5t-9.5 27.5v690q0 156 -71.5 234.5t-231.5 78.5q-151 0 -276 -37v-966q0 -15 -10 -27t-25 -12h-21q-15 0 -25 12t-10 27v1425h-294
q-126 0 -166.5 -29.5t-40.5 -132.5v-190h243q17 0 28 -9t11 -24v-18q0 -15 -11 -24t-28 -9h-243v-977q0 -15 -11 -27t-26 -12h-15q-17 0 -27.5 11.5t-10.5 27.5v977h-203q-17 0 -28 9t-11 24v18q0 15 11 24t28 9h203v190q0 139 66 190.5t226 51.5q277 0 355 -6q35 -2 35 -39
z" />
    <glyph glyph-name="f_j" unicode="fj" horiz-adv-x="1189" 
d="M1026 -176q0 -126 -51 -174.5t-160 -48.5q-39 0 -86 6q-21 3 -28 9t-7 19v19q0 24 43 24h78q70 0 95.5 28.5t25.5 117.5v1192h-522v-977q0 -15 -11 -27t-26 -12h-15q-17 0 -27.5 11.5t-10.5 27.5v977h-203q-17 0 -28 9t-11 24v18q0 15 11 24t28 9h203v190q0 128 59 185
t172 57q67 0 107 -6q38 -5 38 -33v-14q0 -27 -43 -27h-102q-74 0 -107.5 -36t-33.5 -126v-190h577q16 0 25.5 -11.5t9.5 -27.5v-1237zM1026 1341q0 -17 -11.5 -27.5t-27.5 -10.5h-12q-16 0 -27.5 10.5t-11.5 27.5v152q0 15 12 27t27 12h12q15 0 27 -12t12 -27v-152z" />
    <glyph glyph-name="f_k" unicode="fk" horiz-adv-x="1683" 
d="M915 1452h-294q-126 0 -166.5 -29.5t-40.5 -132.5v-190h243q17 0 28 -9t11 -24v-18q0 -15 -11 -24t-28 -9h-243v-977q0 -15 -11 -27t-26 -12h-15q-17 0 -27.5 11.5t-10.5 27.5v977h-203q-17 0 -28 9t-11 24v18q0 15 11 24t28 9h203v190q0 139 66 190.5t226 51.5
q277 0 355 -6q35 -2 35 -39v-866l503 471q21 18 50 18q35 0 42 -24.5t-16 -43.5l-502 -458l504 -533q19 -20 11 -41.5t-35 -21.5q-38 0 -62 24l-495 531v-516q0 -15 -12 -27t-27 -12h-13q-15 0 -27 12t-12 27v1425z" />
    <glyph glyph-name="f_f" unicode="ff" horiz-adv-x="1363" 
d="M1292 1479q0 -27 -43 -27h-102q-74 0 -107.5 -36t-33.5 -126v-190h243q17 0 28 -9t11 -24v-18q0 -15 -11 -24t-28 -9h-243v-977q0 -15 -11 -27t-26 -12h-15q-17 0 -28 11.5t-11 27.5v977h-501v-977q0 -15 -11 -27t-26 -12h-15q-17 0 -27.5 11.5t-10.5 27.5v977h-203
q-17 0 -28 9t-11 24v18q0 15 11 24t28 9h203v190q0 128 59 185t172 57q67 0 107 -6q38 -5 38 -33v-14q0 -27 -43 -27h-102q-74 0 -107.5 -36t-33.5 -126v-190h501v190q0 128 59.5 185t172.5 57q65 0 106 -6q39 -5 39 -33v-14z" />
    <glyph glyph-name="fi" unicode="fi" horiz-adv-x="1169" 
d="M700 1479q0 -27 -43 -27h-102q-74 0 -107.5 -36t-33.5 -126v-190h553q15 0 27 -12t12 -27v-1022q0 -15 -12 -27t-27 -12h-13q-15 0 -27 12t-12 27v977h-501v-977q0 -15 -11 -27t-26 -12h-15q-17 0 -27.5 11.5t-10.5 27.5v977h-203q-17 0 -28 9t-11 24v18q0 15 11 24t28 9
h203v190q0 128 59 185t172 57q67 0 107 -6q38 -5 38 -33v-14zM1006 1341q0 -17 -11.5 -27.5t-27.5 -10.5h-13q-16 0 -27.5 10.5t-11.5 27.5v152q0 15 12 27t27 12h13q15 0 27 -12t12 -27v-152z" />
    <glyph glyph-name="fl" unicode="fl" horiz-adv-x="1169" 
d="M1006 39q0 -15 -10 -27t-25 -12h-21q-15 0 -25 12t-10 27v1413h-294q-126 0 -166.5 -29.5t-40.5 -132.5v-190h243q17 0 28 -9t11 -24v-18q0 -15 -11 -24t-28 -9h-243v-977q0 -15 -11 -27t-26 -12h-15q-17 0 -27.5 11.5t-10.5 27.5v977h-203q-17 0 -28 9t-11 24v18
q0 15 11 24t28 9h203v190q0 139 66 190.5t226 51.5q238 0 355 -6q15 0 25 -12t10 -27v-1448z" />
    <glyph glyph-name="f_f_i" unicode="ffi" horiz-adv-x="1781" 
d="M1618 39q0 -15 -12 -27t-27 -12h-12q-15 0 -27 12t-12 27v977h-522v-977q0 -15 -11 -27t-26 -12h-15q-17 0 -28 11.5t-11 27.5v977h-501v-977q0 -15 -11 -27t-26 -12h-15q-17 0 -27.5 11.5t-10.5 27.5v977h-203q-17 0 -28 9t-11 24v18q0 15 11 24t28 9h203v190
q0 128 59 185t172 57q67 0 107 -6q38 -5 38 -33v-14q0 -27 -43 -27h-102q-74 0 -107.5 -36t-33.5 -126v-190h501v190q0 128 59.5 185t172.5 57q65 0 106 -6q39 -5 39 -33v-14q0 -27 -43 -27h-102q-74 0 -107.5 -36t-33.5 -126v-190h573q39 0 39 -39v-1022zM1618 1341
q0 -17 -11.5 -27.5t-27.5 -10.5h-12q-16 0 -27.5 10.5t-11.5 27.5v152q0 15 12 27t27 12h12q15 0 27 -12t12 -27v-152z" />
    <glyph glyph-name="f_f_l" unicode="ffl" horiz-adv-x="1761" 
d="M700 1479q0 -27 -43 -27h-102q-74 0 -107.5 -36t-33.5 -126v-190h501v190q0 139 66.5 190.5t226.5 51.5q238 0 355 -6q15 0 24.5 -11.5t9.5 -27.5v-1448q0 -16 -9.5 -27.5t-24.5 -11.5h-21q-15 0 -25 12t-10 27v1413h-295q-125 0 -165.5 -29.5t-40.5 -132.5v-190h243
q17 0 28 -9t11 -24v-18q0 -15 -11 -24t-28 -9h-243v-977q0 -15 -11 -27t-26 -12h-15q-17 0 -28 11.5t-11 27.5v977h-501v-977q0 -15 -11 -27t-26 -12h-15q-17 0 -27.5 11.5t-10.5 27.5v977h-203q-17 0 -28 9t-11 24v18q0 15 11 24t28 9h203v190q0 128 59 185t172 57
q67 0 107 -6q38 -5 38 -33v-14z" />
    <glyph glyph-name=".notdef" horiz-adv-x="1024" 
d="M25 0v1362h972v-1362h-972zM180 1266l332 -498l330 498h-662zM123 1178v-992q0 -1 82.5 123t164.5 249l83 124zM901 1178l-332 -496l332 -498v994zM842 98l-330 496l-332 -496h662z" />
    <glyph glyph-name=".null" horiz-adv-x="0" 
 />
    <glyph glyph-name="nonmarkingreturn" horiz-adv-x="682" 
 />
    <glyph glyph-name="space" unicode=" " horiz-adv-x="440" 
 />
    <glyph glyph-name="exclam" unicode="!" horiz-adv-x="417" 
d="M254 393q0 -15 -12 -27t-27 -12h-12q-15 0 -27 12t-12 27v1090q0 15 12 27t27 12h12q15 0 27 -12t12 -27v-1090zM254 27q0 -17 -11.5 -28t-27.5 -11h-12q-16 0 -27.5 11t-11.5 28v151q0 15 12 27t27 12h12q15 0 27 -12t12 -27v-151z" />
    <glyph glyph-name="quotedbl" unicode="&#x22;" horiz-adv-x="604" 
d="M524 1499q0 -10 -2 -16l-98 -353q-10 -38 -39 -38h-31q-18 0 -18 20q0 12 2 18l84 353q8 39 41 39h39q22 0 22 -23zM268 1499q0 -10 -2 -16l-98 -353q-10 -38 -39 -38h-31q-18 0 -18 20q0 12 2 18l84 353q8 39 41 39h39q22 0 22 -23z" />
    <glyph glyph-name="numbersign" unicode="#" horiz-adv-x="1302" 
d="M1200 1018q0 -15 -12.5 -25t-28.5 -10h-213l-41 -463h213q16 0 25.5 -9t9.5 -26v-6q0 -16 -12.5 -25.5t-28.5 -9.5h-215l-35 -405q-2 -16 -11.5 -27.5t-25.5 -11.5h-18q-14 0 -23.5 10.5t-9.5 24.5v4l35 405h-369l-34 -405q-2 -16 -12.5 -27.5t-24.5 -11.5h-21
q-13 0 -23 10.5t-10 24.5v4l35 405h-211q-16 0 -26.5 9t-10.5 26v6q0 16 13 25.5t30 9.5h213l41 463h-213q-15 0 -25.5 10t-10.5 25v8q0 14 13.5 24.5t29.5 10.5h213l36 422q2 15 13 27t26 12h21q13 0 21.5 -10.5t8.5 -24.5v-4l-36 -422h368l37 422q2 16 12.5 27.5
t26.5 11.5h18q14 0 22.5 -10.5t8.5 -24.5v-4l-37 -422h213q15 0 25 -10t10 -25v-8zM858 983h-369l-40 -463h368z" />
    <glyph glyph-name="dollar" unicode="$" 
d="M1024 377q0 -350 -385 -385v-215q0 -16 -9.5 -27.5t-23.5 -11.5h-20q-14 0 -23.5 11.5t-9.5 27.5v211h-4q-93 0 -318 22q-15 2 -25.5 10.5t-10.5 22.5v27q0 26 38 26h9q34 -3 95.5 -9t111.5 -9.5t100 -3.5q112 0 189.5 23t118 66.5t57 94.5t16.5 119q0 100 -52.5 159.5
t-224.5 165.5l-204 127q-165 103 -225 182.5t-60 188.5q0 298 389 328v178q0 16 9.5 27.5t23.5 11.5h20q14 0 23.5 -11.5t9.5 -27.5v-174h4q74 0 305 -21q35 -3 35 -30v-27q0 -29 -39 -29q-15 0 -129.5 10.5t-173.5 10.5q-201 0 -292 -59t-91 -187q0 -88 50 -147.5
t198 -149.5l201 -123q130 -79 199 -143.5t93.5 -122.5t24.5 -137z" />
    <glyph glyph-name="percent" unicode="%" horiz-adv-x="1550" 
d="M1427 307q0 -158 -67.5 -238.5t-190.5 -80.5t-191.5 80.5t-68.5 238.5v213q0 158 68.5 238t191.5 80t190.5 -80t67.5 -238v-213zM1264 1511q0 -9 -13 -28l-860 -1456q-13 -23 -21 -31t-22 -8h-55q-14 0 -14 10q0 11 12 29l860 1456q13 23 21 31t22 8h53q17 0 17 -11z
M641 1001q0 -158 -67.5 -238.5t-190.5 -80.5t-191.5 80.5t-68.5 238.5v213q0 158 68.5 238t191.5 80t190.5 -80t67.5 -238v-213zM1348 307v213q0 240 -179 240q-180 0 -180 -240v-213q0 -239 180 -239q179 0 179 239zM561 1001v213q0 240 -178 240q-180 0 -180 -240v-213
q0 -239 180 -239q178 0 178 239z" />
    <glyph glyph-name="ampersand" unicode="&#x26;" horiz-adv-x="1304" 
d="M1227 14q0 -14 -17 -14h-65q-21 0 -33 14l-129 138q-158 -164 -418 -164q-66 0 -127.5 9.5t-124 35t-108 64t-74.5 102t-29 143.5v12q0 125 68 216t244 204q-107 125 -162.5 208.5t-69.5 127.5t-14 96v13q0 84 30 146t84 97.5t123 52.5t154 17q73 0 137.5 -17t119 -52.5
t86.5 -98t32 -145.5v-13q0 -118 -72 -210t-250 -199l-67 -41q31 -34 101.5 -109.5t90.5 -97.5l244 -262q104 162 104 426v22q0 39 31 39h29q33 0 33 -39v-22q0 -298 -136 -492l181 -194q4 -8 4 -13zM840 1206v13q0 231 -281 231q-70 0 -120.5 -10.5t-92.5 -35t-63 -71
t-21 -114.5v-13q0 -47 12 -84t62.5 -110.5t152.5 -190.5l76 45q162 97 218.5 169t56.5 171zM926 215l-254 272q-149 161 -203 222q-160 -101 -215 -171t-55 -184v-12q0 -72 31 -126.5t84.5 -85.5t116 -45.5t134.5 -14.5q226 0 361 145z" />
    <glyph glyph-name="quotesingle" unicode="'" horiz-adv-x="348" 
d="M268 1499q0 -10 -2 -16l-98 -353q-10 -38 -39 -38h-31q-18 0 -18 20q0 12 2 18l84 353q8 39 41 39h39q22 0 22 -23z" />
    <glyph glyph-name="parenleft" unicode="(" horiz-adv-x="542" 
d="M502 -389q0 -10 -17 -10h-61q-24 0 -35 14q-91 110 -153.5 277t-87.5 320.5t-25 293.5v110q0 140 25 293.5t87.5 320.5t153.5 277q12 15 35 15h61q17 0 17 -11q0 -8 -10 -18q-89 -96 -154 -258t-94 -320.5t-29 -298.5v-110q0 -140 29 -298.5t94 -320.5t154 -258
q10 -10 10 -18z" />
    <glyph glyph-name="parenright" unicode=")" horiz-adv-x="542" 
d="M420 506q0 -140 -25 -293.5t-87.5 -320.5t-153.5 -277q-11 -14 -35 -14h-62q-16 0 -16 10q0 8 10 18q89 96 154 258t94 320.5t29 298.5v110q0 140 -29 298.5t-94 320.5t-154 258q-10 10 -10 18q0 11 16 11h62q23 0 35 -15q91 -110 153.5 -277t87.5 -320.5t25 -293.5v-110
z" />
    <glyph glyph-name="asterisk" unicode="*" horiz-adv-x="854" 
d="M784 1260q0 -11 -8 -20.5t-20 -12.5l-267 -86l164 -228q11 -15 11 -24q0 -13 -13 -23l-14 -10q-9 -6 -16 -6q-15 0 -29 18l-166 228l-164 -228q-13 -16 -29 -16q-10 0 -16 4l-16 10q-13 6 -13 21q0 11 11 26l166 228l-267 86q-12 3 -20 12.5t-8 20.5q0 6 2 8l6 16
q6 19 28 19q6 0 15 -3l268 -86v281q0 37 29 37h18q29 0 29 -37v-281l268 86q9 3 15 3q22 0 28 -19l6 -16q2 -2 2 -8z" />
    <glyph glyph-name="plus" unicode="+" 
d="M1051 791q0 -33 -41 -33h-373v-371q0 -41 -33 -41h-20q-33 0 -33 41v371h-371q-41 0 -41 33v20q0 33 41 33h371v373q0 40 33 40h20q33 0 33 -40v-373h373q41 0 41 -33v-20z" />
    <glyph glyph-name="comma" unicode="," horiz-adv-x="344" 
d="M266 195q0 -5 -4 -17l-129 -344q-8 -21 -16.5 -30t-22.5 -9h-24q-21 0 -21 21q0 6 4 18l109 344q11 39 41 39h39q24 0 24 -22z" />
    <glyph glyph-name="hyphen" unicode="-" horiz-adv-x="704" 
d="M598 559q0 -15 -11 -24t-28 -9h-414q-17 0 -28 9t-11 24v16q0 15 11 26t28 11h414q17 0 28 -11t11 -26v-16z" />
    <glyph glyph-name="period" unicode="." horiz-adv-x="344" 
d="M217 27q0 -17 -11.5 -28t-27.5 -11h-12q-16 0 -27.5 11t-11.5 28v151q0 15 12 27t27 12h12q15 0 27 -12t12 -27v-151z" />
    <glyph glyph-name="slash" unicode="/" horiz-adv-x="638" 
d="M610 1507q0 -10 -2 -14l-481 -1466q-13 -39 -33 -39h-45q-20 0 -20 24q0 11 2 15l481 1466q13 39 33 39h43q22 0 22 -25z" />
    <glyph glyph-name="zero" unicode="0" 
d="M1065 559q0 -288 -124 -429.5t-347 -141.5t-347 141.5t-124 429.5v404q0 288 124 428.5t347 140.5t347 -140.5t124 -428.5v-404zM975 559v404q0 241 -97.5 364t-283.5 123t-283.5 -123t-97.5 -364v-404q0 -241 97.5 -365t283.5 -124t283.5 124t97.5 365z" />
    <glyph glyph-name="one" unicode="1" 
d="M174 84h350v1350l-352 -45h-10q-31 0 -31 26v10q0 21 10 29t31 12l395 56h11q36 0 36 -41v-1397h351q41 0 41 -31v-22q0 -31 -41 -31h-791q-41 0 -41 31v22q0 31 41 31z" />
    <glyph glyph-name="two" unicode="2" 
d="M1024 1174q0 -117 -59 -202.5t-217 -191.5l-209 -141q-65 -44 -112.5 -83.5t-78.5 -78t-49.5 -72t-28 -75.5t-12 -77t-2.5 -87v-82h709q41 0 41 -31v-22q0 -31 -41 -31h-760q-18 0 -29.5 12.5t-11.5 28.5v125q0 83 11 145t43.5 130.5t97 134t165.5 133.5l209 141
q139 94 187.5 160t48.5 164q0 140 -88 206t-289 66q-152 0 -313 -31q-2 0 -6 -1t-5 -1q-14 0 -23 9t-9 24v22q0 25 38 33q140 31 318 31q475 0 475 -358z" />
    <glyph glyph-name="three" unicode="3" 
d="M1016 422q0 -223 -133.5 -328.5t-374.5 -105.5q-153 0 -299 30q-15 3 -26 13.5t-11 23.5v13q0 32 33 32h8q160 -26 295 -26q213 0 312.5 82t99.5 266v41q0 44 -16 92t-48 94.5t-91.5 76.5t-135.5 30h-383q-17 0 -28 11t-11 26v14q0 17 11 27t28 10h383q68 0 121 20
t84.5 50t51.5 70.5t27 76.5t7 72v24q0 86 -25 142.5t-79 88.5t-127 45t-181 13q-105 0 -295 -31h-8q-15 0 -24 9t-9 24v16q0 13 11 23.5t26 13.5q177 31 299 31q124 0 213 -17t158 -58.5t103 -116t34 -183.5v-24q0 -109 -50.5 -199t-162.5 -139q57 -26 100 -67t66.5 -87.5
t35 -91t11.5 -86.5v-41z" />
    <glyph glyph-name="four" unicode="4" 
d="M1110 477q0 -16 -11.5 -25.5t-27.5 -9.5h-205v-403q0 -16 -9 -27.5t-23 -11.5h-25q-16 0 -24.5 11.5t-8.5 27.5v403h-567q-61 0 -96 31.5t-35 79.5q0 43 28 86l574 842q34 51 104 51q36 0 59 -24t23 -74v-906h205q16 0 27.5 -9t11.5 -23v-19zM776 528v893q0 17 -12 17
q-8 0 -21 -17l-559 -821q-20 -32 -20 -47q0 -25 45 -25h567z" />
    <glyph glyph-name="five" unicode="5" 
d="M1030 440q0 -218 -141 -335t-377 -117q-152 0 -315 37q-39 7 -39 38v23q0 27 26 27q11 0 17 -2q154 -37 311 -37q207 0 317.5 92t110.5 274v52q0 177 -115 247t-379 70h-217q-19 0 -30 11t-11 30v4l48 633q1 15 13.5 25t26.5 10h668q17 0 29 -8.5t12 -24.5v-23
q0 -28 -41 -28h-620l-37 -545h159q165 0 279 -25t180.5 -77.5t95.5 -124.5t29 -174v-52z" />
    <glyph glyph-name="six" unicode="6" 
d="M1057 514q0 -264 -114 -395t-359 -131q-230 0 -341.5 130.5t-111.5 399.5v481q0 282 125 407.5t377 125.5q99 0 167.5 -9.5t157.5 -29.5q46 -8 46 -37v-20q0 -29 -33 -29q-11 0 -17 2q-95 20 -161 28.5t-160 8.5q-215 0 -313.5 -101t-98.5 -346v-127q208 54 379 54
q70 0 133.5 -12t123.5 -41t103.5 -73.5t70 -115t26.5 -160.5v-10zM967 514v10q0 72 -21.5 128.5t-56.5 91.5t-84 57.5t-99 31.5t-106 9q-196 0 -379 -49v-275q0 -242 86.5 -345t276.5 -103t286.5 103.5t96.5 340.5z" />
    <glyph glyph-name="seven" unicode="7" 
d="M1059 1450q0 -25 -10 -45l-656 -1385q-3 -7 -15.5 -13.5t-21.5 -6.5h-30q-14 0 -22.5 9t-8.5 22q0 12 6 24l647 1350q2 4 2 12q0 17 -16 17h-766q-18 0 -29.5 8.5t-11.5 23.5v17q0 15 12 27t29 12h811q35 0 57.5 -20t22.5 -52z" />
    <glyph glyph-name="eight" unicode="8" 
d="M1073 403q0 -104 -36 -184t-100.5 -130t-151 -75.5t-191.5 -25.5t-191.5 25.5t-151 75.5t-100.5 130t-36 184v62q0 60 21.5 121.5t71.5 120.5t120 90q-98 35 -155.5 122t-57.5 195v45q0 187 129 280t350 93t350 -93t129 -280v-45q0 -108 -57.5 -195t-155.5 -122
q70 -31 120 -90t71.5 -120.5t21.5 -121.5v-62zM977 1114v45q0 287 -383 287t-383 -287v-45q0 -37 8.5 -73t30 -72.5t54.5 -63.5t86 -44t120 -17h168q67 0 120 17t86 44t54.5 63.5t30 72.5t8.5 73zM977 403v62q0 31 -8 66.5t-29.5 76.5t-54 73t-86.5 53.5t-121 21.5h-168
q-67 0 -121 -21.5t-86.5 -53.5t-54 -73t-29.5 -76.5t-8 -66.5v-62q0 -161 99 -245t284 -84t284 84t99 245z" />
    <glyph glyph-name="nine" unicode="9" 
d="M1057 520q0 -281 -125 -406.5t-377 -125.5q-156 0 -326 39q-45 8 -45 36v21q0 29 33 29q10 0 16 -2q175 -37 322 -37q144 0 232 41.5t134 140.5t46 264v127q-204 -53 -379 -53q-70 0 -133 11.5t-123.5 41t-104 73.5t-70 114.5t-26.5 160.5v11q0 264 114 395t359 131
q230 0 341.5 -131t111.5 -400v-481zM967 727v274q0 242 -87 345.5t-276 103.5q-190 0 -286.5 -103.5t-96.5 -340.5v-11q0 -72 21.5 -128.5t56.5 -91.5t84 -57.5t99 -31t106 -8.5q196 0 379 49z" />
    <glyph glyph-name="colon" unicode=":" horiz-adv-x="364" 
d="M227 920q0 -17 -11.5 -28t-27.5 -11h-12q-16 0 -27.5 11t-11.5 28v151q0 15 12 27t27 12h12q15 0 27 -12t12 -27v-151zM227 27q0 -17 -11.5 -28t-27.5 -11h-12q-16 0 -27.5 11t-11.5 28v151q0 15 12 27t27 12h12q15 0 27 -12t12 -27v-151z" />
    <glyph glyph-name="semicolon" unicode=";" horiz-adv-x="364" 
d="M227 920q0 -17 -11.5 -28t-27.5 -11h-12q-16 0 -27.5 11t-11.5 28v151q0 15 12 27t27 12h12q15 0 27 -12t12 -27v-151zM242 195q0 -5 -4 -17l-129 -344q-8 -21 -16.5 -30t-22.5 -9h-25q-20 0 -20 21q0 6 4 18l108 344q11 39 41 39h39q25 0 25 -22z" />
    <glyph glyph-name="less" unicode="&#x3c;" 
d="M883 326q0 -12 -11 -23l-14 -14q-8 -8 -20 -8q-16 0 -33 14l-545 446q-31 25 -31 60q0 34 31 59l545 447q17 14 33 14q12 0 20 -8l14 -15q11 -11 11 -22q0 -17 -17 -31l-542 -444l542 -445q17 -14 17 -30z" />
    <glyph glyph-name="equal" unicode="=" 
d="M1010 995q0 -32 -41 -32h-748q-41 0 -41 32v21q0 33 41 33h748q41 0 41 -33v-21zM1010 586q0 -33 -41 -33h-748q-41 0 -41 33v20q0 33 41 33h748q41 0 41 -33v-20z" />
    <glyph glyph-name="greater" unicode="&#x3e;" 
d="M987 801q0 -35 -31 -60l-544 -446q-18 -14 -33 -14q-13 0 -21 8l-14 14q-10 10 -10 23q0 17 16 30l543 445l-543 444q-16 13 -16 31q0 12 10 22l14 15q8 8 21 8q15 0 33 -14l544 -447q31 -25 31 -59z" />
    <glyph glyph-name="question" unicode="?" horiz-adv-x="868" 
d="M745 1219q0 -93 -46.5 -174.5t-178.5 -213.5l-61 -61q-77 -77 -100 -123.5t-23 -130.5v-123q0 -17 -11.5 -28t-27.5 -11h-12q-16 0 -27.5 11t-11.5 28v123q0 100 31 165.5t120 154.5l58 57q118 118 155 183t37 143v16q0 115 -72.5 166t-224.5 51q-80 0 -248 -14h-4
q-26 0 -26 24v17q0 34 34 39q118 14 244 14q80 0 147.5 -15.5t125 -48.5t90 -92.5t32.5 -140.5v-16zM334 27q0 -17 -11.5 -28t-27.5 -11h-12q-16 0 -27.5 11t-11.5 28v151q0 15 12 27t27 12h12q15 0 27 -12t12 -27v-151z" />
    <glyph glyph-name="at" unicode="@" horiz-adv-x="1552" 
d="M1450 764q0 -211 -38.5 -329.5t-127.5 -184.5q-160 -117 -557 -117q-143 0 -216 73.5t-73 194.5q0 25 2 37l23 242q13 136 95.5 218.5t234.5 82.5q114 0 251 -29q29 -7 29 -26v-4l-63 -695q56 7 102 20.5t80.5 30.5t61 44t44 51.5t30 63.5t19 70t10 80t4.5 84.5t1 92.5
q0 102 -35 190t-99.5 153.5t-164.5 102.5t-223 37q-131 0 -243 -42.5t-190.5 -115.5t-126.5 -171.5t-59 -210.5l-28 -291q-3 -30 -3 -60q0 -99 32 -184.5t94.5 -152.5t164.5 -105.5t232 -38.5q115 0 258 10h2h6q31 0 31 -24q0 -9 -2 -15q-5 -27 -41 -32q-134 -17 -262 -17
q-115 0 -214 30t-169.5 82t-120.5 122.5t-74.5 153t-24.5 171.5q0 40 2 60l29 293q12 130 66.5 242t144 196t219 132t283.5 48q143 0 260 -47t191 -126.5t113.5 -179.5t39.5 -210zM981 883q-124 18 -193 18q-219 0 -239 -223l-23 -240q-2 -12 -2 -35q0 -89 50 -138.5
t153 -49.5h70q86 0 125 6z" />
    <glyph glyph-name="A" unicode="A" horiz-adv-x="1267" 
d="M1186 45q6 -23 -1 -37t-28 -14h-24q-12 0 -21 7.5t-12 18.5l-172 555h-590l-168 -555q-3 -10 -13 -18t-20 -8h-26q-20 0 -27.5 14.5t-1.5 36.5l420 1387q14 47 48.5 73.5t84.5 26.5q49 0 83 -26t48 -72zM905 666l-223 743q-12 41 -47 41q-37 0 -47 -39l-226 -745h543z
" />
    <glyph glyph-name="B" unicode="B" 
d="M1081 416q0 -104 -35.5 -183t-90.5 -125t-133.5 -74.5t-152.5 -38t-159 -9.5q-160 0 -307 16q-39 3 -39 39v1440q0 15 12 26t27 13q168 12 307 12q91 0 167 -9t152 -33.5t127.5 -65t84 -107.5t32.5 -156v-22q0 -125 -64 -212.5t-180 -127.5q120 -36 186 -124.5t66 -223.5
v-35zM983 1139v22q0 61 -18 108.5t-52 78.5t-76 52t-98.5 32t-110 15.5t-118.5 4.5q-54 0 -153 -4t-103 -4v-600h371q358 0 358 295zM991 416v35q0 50 -10 92.5t-36 82.5t-66 68t-105 45t-149 17h-371v-676q176 -12 256 -12q81 0 145 7.5t129.5 30t109 59.5t70.5 101t27 150
z" />
    <glyph glyph-name="C" unicode="C" horiz-adv-x="1099" 
d="M1018 43q0 -14 -12 -23.5t-27 -11.5q-177 -20 -354 -20q-81 0 -151 19t-136 65t-112.5 117t-74.5 182.5t-28 253.5v270q0 142 28 253.5t74.5 182.5t112.5 117t136 65t151 19q169 0 354 -21q15 -2 27 -11t12 -23v-25q0 -17 -9.5 -22t-29.5 -3q-176 19 -354 19
q-89 0 -161.5 -30t-130 -93.5t-89 -172t-31.5 -255.5v-270q0 -147 31.5 -255.5t89 -172t130 -93.5t161.5 -30q187 0 354 18q20 2 29.5 -2.5t9.5 -21.5v-25z" />
    <glyph glyph-name="D" unicode="D" horiz-adv-x="1255" 
d="M1133 633q0 -138 -29 -247.5t-81 -183.5t-127.5 -122.5t-164.5 -70t-196 -21.5q-242 0 -336 16q-14 3 -24.5 14.5t-10.5 24.5v1434q0 13 10.5 24.5t24.5 14.5q94 16 336 16q598 0 598 -645v-254zM1042 633v254q0 128 -25.5 226t-70 161.5t-109.5 104t-138.5 57
t-163.5 16.5q-101 0 -281 -12v-1364q120 -8 281 -8q507 0 507 565z" />
    <glyph glyph-name="E" unicode="E" horiz-adv-x="1091" 
d="M979 35q0 -15 -11 -25t-28 -10h-528q-123 0 -185.5 52.5t-62.5 176.5v1063q0 124 62.5 177t185.5 53h528q17 0 28 -10t11 -25v-17q0 -15 -10.5 -23.5t-28.5 -8.5h-528q-82 0 -120 -28.5t-38 -117.5v-450h686q17 0 28 -9t11 -24v-21q0 -15 -11 -24.5t-28 -9.5h-686v-525
q0 -89 38 -117t120 -28h528q17 0 28 -9t11 -24v-16z" />
    <glyph glyph-name="F" unicode="F" horiz-adv-x="1060" 
d="M979 788q0 -15 -11 -24.5t-28 -9.5h-686v-715q0 -15 -10 -27t-25 -12h-20q-15 0 -25 12t-10 27v1253q0 124 62.5 177t185.5 53h528q17 0 28 -10t11 -25v-17q0 -15 -10.5 -23.5t-28.5 -8.5h-528q-82 0 -120 -28.5t-38 -117.5v-450h686q17 0 28 -9t11 -24v-21z" />
    <glyph glyph-name="G" unicode="G" horiz-adv-x="1204" 
d="M1040 1458q0 -20 -10 -27t-33 -4q-217 21 -360 21q-66 0 -123.5 -15t-114 -54.5t-96.5 -101t-65 -161.5t-25 -229v-254q0 -282 111.5 -420.5t312.5 -138.5q163 0 311 18v651q0 17 10 28t25 11h21q15 0 24.5 -11t9.5 -28v-690q0 -15 -10 -26t-24 -13q-212 -26 -367 -26
q-112 0 -203.5 38t-162 114t-109.5 202t-39 291v254q0 148 31 263t80.5 185.5t118.5 116t138 63t146 17.5q184 0 369 -21q34 -4 34 -32v-21z" />
    <glyph glyph-name="H" unicode="H" horiz-adv-x="1325" 
d="M1161 39q0 -16 -9.5 -27.5t-25.5 -11.5h-18q-16 0 -25.5 11.5t-9.5 27.5v733h-819v-733q0 -15 -10 -27t-25 -12h-20q-15 0 -25 12t-10 27v1444q0 15 10 27t25 12h20q15 0 25 -12t10 -27v-627h819v627q0 16 9.5 27.5t25.5 11.5h18q16 0 25.5 -11.5t9.5 -27.5v-1444z" />
    <glyph glyph-name="I" unicode="I" horiz-adv-x="458" 
d="M274 39q0 -16 -9.5 -27.5t-24.5 -11.5h-21q-15 0 -25 12t-10 27v1444q0 15 10 27t25 12h21q15 0 24.5 -11.5t9.5 -27.5v-1444z" />
    <glyph glyph-name="J" unicode="J" horiz-adv-x="458" 
d="M274 -123q0 -147 -65 -211.5t-229 -64.5h-29q-41 0 -41 28v21q0 31 41 31h29q126 0 165 37.5t39 158.5v1606q0 15 10 27t25 12h21q15 0 24.5 -11.5t9.5 -27.5v-1606z" />
    <glyph glyph-name="K" unicode="K" horiz-adv-x="1110" 
d="M1036 1495q0 -21 -16 -37l-688 -667l702 -730q21 -23 12.5 -44t-36.5 -21q-31 0 -47 16l-709 738v-711q0 -15 -10 -27t-25 -12h-20q-15 0 -25 12t-10 27v1444q0 15 12 27t27 12h12q15 0 27 -12t12 -27v-656l696 680q26 23 47 23q16 0 27.5 -11t11.5 -24z" />
    <glyph glyph-name="L" unicode="L" horiz-adv-x="989" 
d="M918 35q0 -15 -11 -25t-28 -10h-467q-123 0 -185.5 52.5t-62.5 176.5v1254q0 15 10 27t25 12h20q15 0 25 -12t10 -27v-1254q0 -89 38 -117t120 -28h467q17 0 28 -9t11 -24v-16z" />
    <glyph glyph-name="M" unicode="M" horiz-adv-x="1495" 
d="M1331 39q0 -15 -10 -27t-25 -12h-20q-15 0 -25 12t-10 27v1393q0 14 -14 14q-10 0 -21 -19l-354 -747q-21 -42 -44.5 -58t-59.5 -16t-60 16t-45 58l-354 747q-11 19 -21 19q-14 0 -14 -14v-1393q0 -15 -10 -27t-25 -12h-20q-15 0 -25 12t-10 27v1393q0 50 27.5 75
t76.5 25q65 0 94 -64l359 -751q12 -27 27 -27q14 0 26 27l359 751q29 64 94 64q49 0 76.5 -25t27.5 -75v-1393z" />
    <glyph glyph-name="N" unicode="N" horiz-adv-x="1333" 
d="M1169 92q0 -48 -26 -76t-66 -28q-51 0 -69 14q-23 19 -37 47l-690 1383q-7 14 -17 14t-10 -14v-1393q0 -15 -10 -27t-25 -12h-20q-15 0 -25 12t-10 27v1393q0 45 27.5 72.5t72.5 27.5q40 0 61.5 -16t36.5 -48l689 -1380q7 -14 16 -14q10 0 10 18v1391q0 16 9.5 27.5
t23.5 11.5h25q16 0 25 -11.5t9 -27.5v-1391z" />
    <glyph glyph-name="O" unicode="O" horiz-adv-x="1294" 
d="M1171 633q0 -167 -38.5 -292.5t-109.5 -202t-165 -113.5t-211 -37t-211 37t-165 113.5t-109.5 202t-38.5 292.5v254q0 167 38.5 292.5t109.5 202t165 113.5t211 37t211 -37t165 -113.5t109.5 -202t38.5 -292.5v-254zM1081 633v254q0 123 -21.5 218.5t-59.5 159t-93.5 105
t-119 59t-140.5 17.5t-140.5 -17.5t-119 -59t-93.5 -105t-59.5 -159t-21.5 -218.5v-254q0 -123 21.5 -218.5t59.5 -159t93.5 -105t119 -59t140.5 -17.5t140.5 17.5t119 59t93.5 105t59.5 159t21.5 218.5z" />
    <glyph glyph-name="P" unicode="P" horiz-adv-x="1105" 
d="M1034 1081q0 -233 -142 -335.5t-415 -102.5q-109 0 -223 8v-612q0 -15 -10 -27t-25 -12h-20q-15 0 -25 12t-10 27v1444q0 14 11 26t24 13q180 10 278 10q557 0 557 -416v-35zM944 1081v35q0 184 -114.5 260t-352.5 76q-135 0 -223 -6v-715q126 -8 223 -8q242 0 354.5 83
t112.5 275z" />
    <glyph glyph-name="Q" unicode="Q" horiz-adv-x="1294" 
d="M1171 633q0 -313 -129 -471.5t-352 -171.5v-137q0 -61 4.5 -91t26 -50.5t56.5 -25.5t104 -5h43q41 0 41 -33v-15q0 -32 -41 -32h-43q-61 0 -100.5 4.5t-77 19.5t-58 42t-33 73t-12.5 113v137q-221 14 -349 173t-128 470v254q0 167 38.5 292.5t109.5 202t165 113.5t211 37
t211 -37t165 -113.5t109.5 -202t38.5 -292.5v-254zM1081 633v254q0 123 -21.5 218.5t-59.5 159t-93.5 105t-119 59t-140.5 17.5t-140.5 -17.5t-119 -59t-93.5 -105t-59.5 -159t-21.5 -218.5v-254q0 -123 21.5 -218.5t59.5 -159t93.5 -105t119 -59t140.5 -17.5t140.5 17.5
t119 59t93.5 105t59.5 159t21.5 218.5z" />
    <glyph glyph-name="R" unicode="R" horiz-adv-x="1224" 
d="M1122 59q13 -20 8 -39.5t-30 -19.5h-27q-17 0 -31 18l-436 668q-7 -2 -45.5 -1t-42.5 1l-264 2v-649q0 -15 -10 -27t-25 -12h-20q-15 0 -25 12t-10 27v1446q0 14 11 26t24 13q144 8 319 8q286 0 421.5 -95t135.5 -323v-10q0 -184 -90 -280.5t-276 -127.5zM985 1104v10
q0 185 -113.5 258.5t-353.5 73.5q-183 0 -264 -8v-664q27 0 130.5 -1t133.5 -1q124 0 207.5 15t144 52.5t88 102t27.5 162.5z" />
    <glyph glyph-name="S" unicode="S" horiz-adv-x="1085" 
d="M973 379q0 -391 -475 -391q-173 0 -299 20q-30 5 -43 13.5t-13 29.5v8q0 39 47 35q165 -20 308 -20q90 0 158 16t110 42.5t68 66.5t35.5 83t9.5 97q0 45 -12 80.5t-31 63.5t-62 61.5t-83.5 60t-117.5 74.5q-7 4 -10 6l-129 80q-66 41 -106 68.5t-86 67.5t-70.5 77
t-41.5 87.5t-17 108.5q0 91 40 155.5t111 98.5t151 49t177 15q145 0 285 -19q31 -3 43 -11.5t12 -28.5v-11q0 -22 -15.5 -28.5t-48.5 -3.5q-144 16 -278 16q-199 0 -292 -58t-93 -174q0 -53 16 -96t55 -82.5t84 -71.5t121 -79l131 -80q80 -48 131.5 -82.5t99.5 -75.5
t73.5 -79.5t41 -85.5t15.5 -103z" />
    <glyph glyph-name="T" unicode="T" horiz-adv-x="1169" 
d="M1108 1468q0 -30 -39 -30h-438v-1399q0 -15 -10 -27t-25 -12h-21q-15 0 -24.5 11.5t-9.5 27.5v1399h-441q-39 0 -39 30v19q0 15 11 25t28 10h969q17 0 28 -10t11 -25v-19z" />
    <glyph glyph-name="U" unicode="U" horiz-adv-x="1296" 
d="M1133 541q0 -266 -119.5 -409.5t-364.5 -143.5t-365 143.5t-120 409.5v942q0 15 10 27t25 12h20q15 0 25 -12t10 -27v-942q0 -231 93 -350t302 -119q208 0 300.5 118.5t92.5 350.5v942q0 15 10 27t25 12h21q15 0 25 -12t10 -27v-942z" />
    <glyph glyph-name="V" unicode="V" horiz-adv-x="1290" 
d="M1198 1470l-420 -1382q-29 -100 -133 -100t-133 100l-420 1382q-6 21 3.5 36.5t29.5 15.5h22q11 0 20.5 -8.5t12.5 -20.5l418 -1378q12 -41 47 -41t47 41l418 1378q3 12 12.5 20.5t20.5 8.5h22q20 0 29.5 -15.5t3.5 -36.5z" />
    <glyph glyph-name="W" unicode="W" horiz-adv-x="1613" 
d="M1522 1475l-252 -1391q-17 -96 -99 -96q-42 0 -64 24.5t-34 67.5l-250 792q-7 25 -16 25t-16 -25l-250 -792q-26 -92 -99 -92q-81 0 -98 96l-252 1391q-3 19 6 33t27 14h20q31 0 37 -33l248 -1387q5 -30 12 -30q8 0 17 30l256 797q24 80 92 80t92 -80l256 -797
q9 -30 16 -30q8 0 13 30l248 1387q6 33 36 33h21q18 0 27 -14t6 -33z" />
    <glyph glyph-name="X" unicode="X" horiz-adv-x="1232" 
d="M1141 59q14 -20 6.5 -39.5t-31.5 -19.5h-16q-7 0 -17.5 6t-15.5 12l-451 682l-450 -682q-4 -6 -15.5 -12t-17.5 -6h-18q-24 0 -31.5 19.5t6.5 39.5l473 719l-450 682q-8 14 -9.5 28t6 24t23.5 10h23q18 0 32 -19l426 -647l428 647q5 6 16 12.5t17 6.5h19q24 0 31 -21
t-7 -41l-450 -684z" />
    <glyph glyph-name="Y" unicode="Y" horiz-adv-x="1128" 
d="M1028 1466l-323 -714q-46 -99 -97 -119v-594q0 -15 -10 -27t-25 -12h-20q-15 0 -25 12t-10 27v594q-50 19 -96 119l-324 714q-11 28 -3 42t32 14h20q9 0 18.5 -8t14.5 -17l322 -717q21 -45 32 -58t29 -13q19 0 30.5 13.5t31.5 57.5l321 717q5 9 14.5 17t18.5 8h20
q24 0 32 -14t-3 -42z" />
    <glyph glyph-name="Z" unicode="Z" horiz-adv-x="1218" 
d="M1096 33q0 -15 -12.5 -24t-30.5 -9h-803q-111 0 -111 88q0 38 23 74l776 1249q4 6 4 14q0 13 -16 13h-742q-17 0 -30 8t-13 22v21q0 14 13.5 23.5t29.5 9.5h742q58 0 84 -17q34 -19 34 -65q0 -32 -22 -70l-782 -1264q-4 -8 -4 -14q0 -8 14 -8h803q18 0 30.5 -8.5
t12.5 -22.5v-20z" />
    <glyph glyph-name="bracketleft" unicode="[" horiz-adv-x="610" 
d="M569 -367q0 -15 -10.5 -23.5t-28.5 -8.5h-311q-15 0 -25 12t-10 27v1843q0 15 10 27t25 12h311q17 0 28 -10t11 -25v-17q0 -15 -10.5 -23.5t-28.5 -8.5h-256v-1753h256q17 0 28 -10t11 -25v-17z" />
    <glyph glyph-name="backslash" unicode="\" horiz-adv-x="665" 
d="M625 12q0 -24 -21 -24h-45q-20 0 -33 39l-481 1466q-2 4 -2 14q0 25 23 25h43q9 0 16 -7t9.5 -13t6.5 -19l482 -1466q2 -4 2 -15z" />
    <glyph glyph-name="bracketright" unicode="]" horiz-adv-x="610" 
d="M426 -360q0 -15 -10 -27t-25 -12h-311q-18 0 -28.5 8.5t-10.5 23.5v17q0 15 11 25t28 10h256v1753h-256q-18 0 -28.5 8.5t-10.5 23.5v17q0 15 11 25t28 10h311q15 0 25 -12t10 -27v-1843z" />
    <glyph glyph-name="asciicircum" unicode="^" 
d="M946 1165q0 -18 -22 -18h-37q-7 0 -12.5 1.5t-10.5 5.5t-8 7.5t-10 12.5t-12 14l-240 285l-240 -285q-4 -5 -10 -12t-8.5 -10.5t-7 -8t-8 -6t-8.5 -3t-11 -1.5h-37q-22 0 -22 18q0 10 10 23l240 307q16 22 26.5 29.5t28.5 7.5h94q18 0 28.5 -7.5t26.5 -29.5l240 -307
q10 -13 10 -23z" />
    <glyph glyph-name="underscore" unicode="_" horiz-adv-x="952" 
d="M1014 -168q0 -33 -41 -33h-993q-41 0 -41 33v21q0 32 41 32h993q41 0 41 -32v-21z" />
    <glyph glyph-name="grave" unicode="`" horiz-adv-x="675" 
d="M434 1280q0 -14 -18 -14h-45q-10 0 -17.5 5t-11.5 9t-16 20l-220 263q-8 8 -8 16q0 14 23 14h53q24 0 47 -30l205 -263q8 -8 8 -20z" />
    <glyph glyph-name="a" unicode="a" horiz-adv-x="999" 
d="M856 41q0 -17 -12 -29t-29 -12h-10q-17 0 -29 12t-12 29v51q-189 -104 -348 -104q-49 0 -92 9.5t-84.5 33t-71.5 60t-48 94.5t-18 132v27q0 108 48.5 176t160.5 103.5t297 35.5h158v74q0 163 -55.5 230t-202.5 67q-118 0 -291 -18q-47 -5 -47 30v13q0 19 11 26.5t36 10.5
q155 18 291 18q101 0 170.5 -27t107.5 -79.5t54 -117.5t16 -153v-692zM766 172v408h-158q-231 0 -323 -52.5t-92 -183.5v-27q0 -249 223 -249q86 0 166.5 24t183.5 80z" />
    <glyph glyph-name="b" unicode="b" horiz-adv-x="1032" 
d="M920 485q0 -232 -99 -364.5t-303 -132.5q-149 0 -344 39q-19 4 -25 12t-6 27v1417q0 15 10 27t25 12h21q15 0 24.5 -11.5t9.5 -27.5v-404q141 31 285 31q200 0 301 -123t101 -366v-136zM829 485v136q0 208 -73 308.5t-238 100.5q-158 0 -285 -26v-910q160 -26 285 -26
q166 0 238.5 105t72.5 312z" />
    <glyph glyph-name="c" unicode="c" horiz-adv-x="894" 
d="M805 43q0 -18 -8 -26t-31 -11q-155 -18 -248 -18q-106 0 -186 39t-127 108.5t-69.5 156.5t-22.5 191v138q0 105 22.5 191.5t69.5 154.5t126.5 105.5t186.5 37.5q93 0 248 -18q23 -3 31 -11t8 -26v-15q0 -35 -43 -28q-144 18 -244 18q-167 0 -241 -106t-74 -303v-138
q0 -415 315 -415q100 0 244 18q19 3 31 -4.5t12 -24.5v-14z" />
    <glyph glyph-name="d" unicode="d" horiz-adv-x="1032" 
d="M889 66q0 -19 -6 -27t-25 -12q-195 -39 -344 -39q-204 0 -302.5 132.5t-98.5 364.5v136q0 489 401 489q144 0 285 -31v404q0 15 10 27t25 12h20q15 0 25 -12t10 -27v-1417zM799 94v910q-127 26 -285 26q-165 0 -238 -100.5t-73 -308.5v-136q0 -207 72.5 -312t238.5 -105
q125 0 285 26z" />
    <glyph glyph-name="e" unicode="e" horiz-adv-x="1046" 
d="M934 567q0 -17 -11.5 -28t-27.5 -11h-692v-43q0 -100 19.5 -175t51.5 -120.5t81 -73.5t100.5 -38t117.5 -10q134 0 304 34q43 9 43 -26v-15q0 -17 -8 -25.5t-31 -12.5q-171 -35 -308 -35q-80 0 -146 14t-125.5 49.5t-100 91t-64.5 142.5t-24 200v136q0 219 108 354
t305 135q205 0 306.5 -130t101.5 -357v-56zM844 610v13q0 201 -75 304t-243 103q-164 0 -243.5 -109t-79.5 -300v-11h641z" />
    <glyph glyph-name="f" unicode="f" horiz-adv-x="772" 
d="M700 1479q0 -27 -43 -27h-102q-74 0 -107.5 -36t-33.5 -126v-190h243q17 0 28 -9t11 -24v-18q0 -15 -11 -24t-28 -9h-243v-977q0 -15 -11 -27t-26 -12h-15q-17 0 -27.5 11.5t-10.5 27.5v977h-203q-17 0 -28 9t-11 24v18q0 15 11 24t28 9h203v190q0 128 59 185t172 57
q67 0 107 -6q38 -5 38 -33v-14z" />
    <glyph glyph-name="g" unicode="g" horiz-adv-x="1093" 
d="M1001 1044q0 -32 -38 -32h-107q113 -91 113 -254v-17q0 -333 -424 -333q-135 0 -250 47q-70 -29 -70 -88q0 -49 60 -64l368 -96q71 -18 116.5 -33.5t89.5 -38.5t68.5 -50.5t39 -67t14.5 -91.5v-14q0 -318 -434 -318q-225 0 -329.5 85t-104.5 233v18q0 99 47 179.5
t106 115.5l-14 4q-55 17 -82 53.5t-27 84.5q0 39 22 75.5t64 55.5q-106 86 -106 243v17q0 52 10 97t38.5 91.5t73.5 79t122 53.5t178 21h418q16 0 27 -9t11 -24v-23zM881 741v17q0 59 -15.5 104t-52 82.5t-104 57.5t-164.5 20q-82 0 -143 -15.5t-96.5 -39.5t-57 -60
t-28.5 -71t-7 -78v-17q0 -28 5.5 -54.5t18 -57t37.5 -55t60 -45.5t89 -32.5t122 -11.5q98 0 166 19.5t104 56t51 80t15 100.5zM891 -88v14q0 85 -51 124t-207 79l-283 74q-73 -48 -111 -112t-38 -161v-18q0 -118 79.5 -180t266.5 -62q100 0 168 16t106 48.5t54 75t16 102.5z
" />
    <glyph glyph-name="h" unicode="h" horiz-adv-x="1034" 
d="M901 27q0 -16 -9.5 -27.5t-25.5 -11.5h-20q-14 0 -23.5 11.5t-9.5 27.5v690q0 156 -71.5 234.5t-231.5 78.5q-152 0 -277 -37v-966q0 -16 -9.5 -27.5t-24.5 -11.5h-21q-15 0 -25 12t-10 27v1456q0 15 10 27t25 12h21q15 0 24.5 -11.5t9.5 -27.5v-410q148 37 277 37
q104 0 181 -29t122 -82.5t66.5 -123t21.5 -158.5v-690z" />
    <glyph glyph-name="i" unicode="i" horiz-adv-x="417" 
d="M254 1341q0 -17 -11.5 -27.5t-27.5 -10.5h-12q-16 0 -27.5 10.5t-11.5 27.5v152q0 15 12 27t27 12h12q15 0 27 -12t12 -27v-152zM254 27q0 -15 -12 -27t-27 -12h-12q-15 0 -27 12t-12 27v1034q0 15 12 27t27 12h12q15 0 27 -12t12 -27v-1034z" />
    <glyph glyph-name="j" unicode="j" horiz-adv-x="417" 
d="M254 1341q0 -17 -11.5 -27.5t-27.5 -10.5h-12q-16 0 -27.5 10.5t-11.5 27.5v152q0 15 12 27t27 12h12q15 0 27 -12t12 -27v-152zM254 -176q0 -126 -51 -174.5t-160 -48.5q-39 0 -86 6q-21 3 -28 9t-7 19v19q0 24 43 24h78q70 0 95.5 28.5t25.5 117.5v1237q0 16 9.5 27.5
t23.5 11.5h22q16 0 25.5 -11.5t9.5 -27.5v-1237z" />
    <glyph glyph-name="k" unicode="k" horiz-adv-x="909" 
d="M815 51q19 -20 12 -41.5t-36 -21.5q-38 0 -62 24l-496 531v-516q0 -15 -11.5 -27t-26.5 -12h-13q-15 0 -27 12t-12 27v1456q0 15 12 27t27 12h13q15 0 26.5 -12t11.5 -27v-862l504 471q21 18 49 18q29 0 39 -24.5t-12 -43.5l-502 -458z" />
    <glyph glyph-name="l" unicode="l" horiz-adv-x="417" 
d="M254 27q0 -15 -10 -27t-25 -12h-20q-15 0 -25 12t-10 27v1456q0 15 10 27t25 12h20q15 0 25 -12t10 -27v-1456z" />
    <glyph glyph-name="m" unicode="m" horiz-adv-x="1527" 
d="M1384 39q0 -16 -9 -27.5t-25 -11.5h-21q-16 0 -25.5 11.5t-9.5 27.5v733q0 140 -60 199t-179 59q-136 0 -277 -69q31 -81 31 -181v-741q0 -39 -31 -39h-30q-29 0 -29 39v741q0 250 -193 250q-113 0 -293 -86v-905q0 -16 -8 -27.5t-22 -11.5h-29q-14 0 -22.5 11.5
t-8.5 27.5v1020q0 18 10 29.5t27 11.5h17q17 0 26.5 -11.5t9.5 -29.5v-37q180 88 312 88q124 0 194 -84q175 84 330 84q67 0 122.5 -19t99.5 -58t68.5 -105.5t24.5 -155.5v-733z" />
    <glyph glyph-name="n" unicode="n" horiz-adv-x="1067" 
d="M924 39q0 -16 -11 -27.5t-28 -11.5h-15q-15 0 -25.5 12t-10.5 27v680q0 164 -75.5 237.5t-201.5 73.5q-149 0 -324 -84v-907q0 -15 -11.5 -27t-26.5 -12h-13q-15 0 -27 12t-12 27v1020q0 18 10 29.5t27 11.5h17q17 0 26.5 -11.5t9.5 -29.5v-33q175 84 330 84
q77 0 140 -21.5t114 -66.5t79 -122t28 -181v-680z" />
    <glyph glyph-name="o" unicode="o" horiz-adv-x="1069" 
d="M956 477q0 -235 -106.5 -362t-314.5 -127t-315 127t-107 362v144q0 235 107 362t315 127t314.5 -127t106.5 -362v-144zM866 477v144q0 409 -331 409q-332 0 -332 -409v-144q0 -409 332 -409q331 0 331 409z" />
    <glyph glyph-name="p" unicode="p" horiz-adv-x="1032" 
d="M920 477q0 -243 -101 -366t-301 -123q-148 0 -285 30v-378q0 -16 -9.5 -27.5t-24.5 -11.5h-21q-15 0 -25 12t-10 27v1392q0 19 6 27t25 12q195 39 344 39q204 0 303 -133t99 -365v-135zM829 477v135q0 207 -72.5 312.5t-238.5 105.5q-125 0 -285 -26v-910
q127 -26 285 -26q165 0 238 100.5t73 308.5z" />
    <glyph glyph-name="q" unicode="q" horiz-adv-x="1032" 
d="M889 -360q0 -15 -10 -27t-25 -12h-20q-15 0 -25 12t-10 27v378q-137 -30 -285 -30q-401 0 -401 489v135q0 232 98.5 365t302.5 133q149 0 344 -39q19 -4 25 -12t6 -27v-1392zM799 94v910q-160 26 -285 26q-166 0 -238.5 -105.5t-72.5 -312.5v-135q0 -208 73 -308.5
t238 -100.5q158 0 285 26z" />
    <glyph glyph-name="r" unicode="r" horiz-adv-x="632" 
d="M573 1063q0 -33 -55 -33q-135 0 -285 -94v-897q0 -15 -11.5 -27t-26.5 -12h-13q-15 0 -27 12t-12 27v1020q0 18 10 29.5t27 11.5h17q17 0 26.5 -11.5t9.5 -29.5v-43q78 51 144 72.5t141 21.5q55 0 55 -31v-16z" />
    <glyph glyph-name="s" unicode="s" horiz-adv-x="901" 
d="M799 272q0 -79 -28 -136t-79 -88.5t-112 -45.5t-136 -14q-149 0 -297 28q-25 5 -35 11t-10 22v23q0 35 45 28q196 -32 302 -32q59 0 103 9t81 30.5t56.5 63t19.5 101.5q0 63 -44 108t-173 116l-132 71q-65 35 -105 62t-75 62t-51 75.5t-16 91.5q0 55 17 99t46 72t70 46.5
t85 26.5t95 8q136 0 293 -18q24 -3 33.5 -9.5t9.5 -25.5v-17q0 -24 -9 -29.5t-34 -2.5q-194 22 -285 22q-112 0 -171.5 -36t-59.5 -136q0 -63 46.5 -108.5t151.5 -104.5l138 -76q141 -78 200.5 -140t59.5 -157z" />
    <glyph glyph-name="t" unicode="t" horiz-adv-x="778" 
d="M696 27q0 -14 -7 -22t-27 -11q-46 -6 -107 -6q-117 0 -174 48t-57 173v807h-203q-17 0 -28 9t-11 24v20q0 31 39 31h203v211q0 16 9 27.5t25 11.5h23q14 0 23.5 -11.5t9.5 -27.5v-211h243q39 0 39 -31v-20q0 -15 -11 -24t-28 -9h-243v-807q0 -86 33 -113.5t108 -27.5h98
q43 0 43 -29v-12z" />
    <glyph glyph-name="u" unicode="u" horiz-adv-x="1067" 
d="M143 1061q0 16 11 27.5t28 11.5h15q15 0 25.5 -12t10.5 -27v-680q0 -164 75.5 -237.5t201.5 -73.5q142 0 324 84v907q0 15 11.5 27t26.5 12h13q15 0 27 -12t12 -27v-1020q0 -18 -10 -29.5t-27 -11.5h-17q-17 0 -26.5 11.5t-9.5 29.5v33q-175 -84 -330 -84
q-160 0 -260.5 95.5t-100.5 295.5v680z" />
    <glyph glyph-name="v" unicode="v" horiz-adv-x="983" 
d="M901 1049l-268 -932q-22 -76 -55.5 -102.5t-83.5 -26.5t-86.5 27t-57.5 102l-268 932q-6 22 2.5 36.5t28.5 14.5h20q27 0 37 -37l262 -924q12 -42 27 -57.5t35 -15.5q19 0 31.5 15t25.5 58l262 924q10 37 37 37h24q20 0 26.5 -14t0.5 -37z" />
    <glyph glyph-name="w" unicode="w" horiz-adv-x="1540" 
d="M1438 1051l-226 -953q-14 -60 -37 -85t-69 -25t-67 26.5t-38 89.5l-217 779q-7 18 -14 18t-14 -18l-217 -779q-17 -63 -38 -89.5t-67 -26.5t-69 25t-37 85l-226 953q-12 49 37 49h13q17 0 22.5 -7t9.5 -22l222 -952q9 -35 13.5 -43t14.5 -8q8 0 13 9t14 40l221 790
q20 74 88 74t88 -74l221 -790q14 -49 27 -49q5 0 8.5 1.5t9 13.5t11.5 36l221 952q8 29 33 29h12q28 0 35.5 -12t1.5 -37z" />
    <glyph glyph-name="x" unicode="x" horiz-adv-x="1009" 
d="M932 29q0 -12 -7.5 -20.5t-21.5 -8.5h-16q-28 0 -39 16l-340 476l-334 -476q-12 -16 -22 -16h-35q-29 0 -29 25q0 15 10 28l361 510l-348 488q-9 13 -9 22q0 11 9.5 19t27.5 8h13q27 0 38 -17l324 -450l313 446q14 21 39 21h19q30 0 30 -25q0 -14 -14 -35l-338 -481
l363 -508q6 -9 6 -22z" />
    <glyph glyph-name="y" unicode="y" horiz-adv-x="995" 
d="M913 1049l-335 -1164q-47 -164 -118 -224t-214 -60q-53 0 -127 12q-21 3 -31 9t-10 20v22q0 19 9.5 25.5t33.5 3.5q93 -12 133 -12q110 0 158.5 44.5t85.5 178.5l26 96h-28q-50 0 -77 22.5t-48 92.5l-277 936q-6 22 1.5 35.5t31.5 13.5h18q25 0 33 -29l277 -942
q8 -29 19.5 -37t27.5 -8h47l280 989q8 27 37 27h19q43 0 28 -51z" />
    <glyph glyph-name="z" unicode="z" horiz-adv-x="913" 
d="M831 33q0 -15 -11.5 -24t-28.5 -9h-586q-123 0 -123 84q0 45 37 92l600 801q8 11 8 20q0 19 -29 19h-538q-18 0 -29.5 8t-11.5 23v20q0 15 11.5 24t29.5 9h536q119 0 119 -88q0 -48 -33 -92l-594 -797q-10 -15 -10 -25q0 -14 19 -14h594q40 0 40 -31v-20z" />
    <glyph glyph-name="braceleft" unicode="{" horiz-adv-x="614" 
d="M573 -365q0 -15 -10.5 -24.5t-27.5 -9.5h-95q-143 0 -197.5 48t-54.5 177v418q0 113 -24 168t-103 112v74q79 57 103 112.5t24 168.5v417q0 128 55.5 177t196.5 49h95q17 0 27.5 -10t10.5 -25v-17q0 -32 -38 -32h-95q-102 0 -131.5 -26t-29.5 -116v-417
q0 -114 -28.5 -186.5t-103.5 -133.5q73 -59 102.5 -131.5t29.5 -183.5v-418q0 -89 29 -115t132 -26h95q17 0 27.5 -9t10.5 -24v-17z" />
    <glyph glyph-name="bar" unicode="|" horiz-adv-x="458" 
d="M274 -360q0 -16 -9.5 -27.5t-24.5 -11.5h-21q-15 0 -25 12t-10 27v1843q0 15 10 27t25 12h21q15 0 24.5 -11.5t9.5 -27.5v-1843z" />
    <glyph glyph-name="braceright" unicode="}" horiz-adv-x="614" 
d="M553 524q-79 -57 -103 -112t-24 -168v-418q0 -129 -54.5 -177t-197.5 -48h-94q-17 0 -28 9.5t-11 24.5v17q0 15 11 24t28 9h94q103 0 132.5 26t29.5 115v418q0 112 29 184t102 131q-75 61 -103 133.5t-28 186.5v417q0 89 -30 115.5t-132 26.5h-94q-18 0 -28.5 8.5
t-10.5 23.5v17q0 15 11 25t28 10h94q141 0 196.5 -49t55.5 -177v-417q0 -113 24 -168.5t103 -112.5v-74z" />
    <glyph glyph-name="asciitilde" unicode="~" 
d="M975 940q0 -213 -184 -213q-89 0 -158 66l-117 112q-26 24 -40 36t-37 24t-44 12q-46 0 -74 -34t-28 -105v-62q0 -22 -4.5 -30.5t-18.5 -8.5h-30q-27 0 -27 39v62q0 107 49 162t133 55q91 0 164 -70l117 -113q66 -63 112 -63q56 0 81.5 29t25.5 102v64q0 21 4.5 28.5
t18.5 7.5h30q15 0 21 -8t6 -28v-64z" />
    <glyph glyph-name="uni00A0" unicode="&#xa0;" horiz-adv-x="440" 
 />
    <glyph glyph-name="exclamdown" unicode="&#xa1;" horiz-adv-x="417" 
d="M254 920q0 -15 -12 -27t-27 -12h-12q-15 0 -27 12t-12 27v151q0 17 11.5 28t27.5 11h12q16 0 27.5 -11t11.5 -28v-151zM254 -385q0 -15 -12 -27t-27 -12h-12q-15 0 -27 12t-12 27v1090q0 15 12 26.5t27 11.5h12q15 0 27 -11.5t12 -26.5v-1090z" />
    <glyph glyph-name="cent" unicode="&#xa2;" 
d="M885 43q0 -18 -8 -26t-31 -11q-138 -16 -205 -18v-207q0 -16 -9.5 -27.5t-23.5 -11.5h-20q-14 0 -23.5 11.5t-9.5 27.5v209q-95 7 -166 49t-113 110t-62.5 152t-20.5 182v138q0 100 20.5 183t62.5 149.5t113 107t166 47.5v209q0 16 9.5 27.5t23.5 11.5h20
q14 0 23.5 -11.5t9.5 -27.5v-207q67 -2 205 -18q23 -3 31 -11t8 -26v-15q0 -28 -33 -28h-10q-144 18 -244 18q-167 0 -241 -106t-74 -303v-138q0 -415 315 -415q100 0 244 18h10q33 0 33 -29v-14z" />
    <glyph glyph-name="sterling" unicode="&#xa3;" 
d="M1044 33q0 -33 -40 -33h-762q-21 0 -31 12.5t-10 28.5q0 13 6 22q44 75 64 136t20 147v410h-109q-17 0 -27 10t-10 25v18q0 15 12 25t29 10h105v151q0 130 20 225t66 167t126 108.5t195 36.5q143 0 303 -19q23 -3 31 -10t8 -22v-17q0 -16 -6 -23t-24 -7h-13
q-144 16 -299 16q-96 0 -159.5 -31t-96.5 -94.5t-45 -140.5t-12 -189v-151h502q17 0 27 -10t10 -25v-18q0 -15 -12 -25t-29 -10h-498v-410q0 -147 -66 -262h685q40 0 40 -29v-22z" />
    <glyph glyph-name="currency" unicode="&#xa4;" 
d="M1075 330q0 -15 -10 -25l-14 -14q-10 -10 -23 -10q-17 0 -31 14l-166 168q-107 -84 -239 -84q-134 0 -238 82l-164 -164q-14 -14 -30 -14q-13 0 -23 10l-14 14q-10 10 -10 23q0 16 14 30l162 162q-86 109 -86 244q0 133 84 240l-160 159q-14 14 -14 31q0 15 10 25l14 14
q8 8 21 8q18 0 32 -14l160 -160q107 84 240 84q135 0 244 -86l163 164q14 14 31 14q13 0 23 -10l14 -14q10 -10 10 -23q0 -17 -14 -31l-164 -163q82 -104 82 -238q0 -133 -84 -240l166 -166q14 -14 14 -30zM895 766q0 125 -89 213t-214 88q-126 0 -214.5 -87.5t-88.5 -213.5
t88.5 -214.5t214.5 -88.5t214.5 88.5t88.5 214.5z" />
    <glyph glyph-name="yen" unicode="&#xa5;" 
d="M1096 520q0 -15 -11.5 -24t-29.5 -9h-416v-448q0 -15 -10 -27t-25 -12h-20q-15 0 -25 12t-10 27v448h-420q-17 0 -27 9t-10 24v19q0 15 11.5 23.5t29.5 8.5h416v62l-125 248h-295q-37 0 -37 32v19q0 15 11.5 24t29.5 9h248l-252 501q-12 28 -3.5 42t32.5 14h24
q20 0 33 -25l381 -758l379 758q13 25 33 25h22q24 0 32.5 -14t-3.5 -42l-252 -501h252q17 0 27 -9t10 -24v-19q0 -15 -11.5 -23.5t-29.5 -8.5h-291l-125 -248v-62h420q37 0 37 -32v-19z" />
    <glyph glyph-name="brokenbar" unicode="&#xa6;" horiz-adv-x="458" 
d="M274 739q0 -16 -9.5 -27.5t-24.5 -11.5h-21q-15 0 -25 12t-10 27v713q0 15 10 27t25 12h21q15 0 24.5 -11.5t9.5 -27.5v-713zM274 -393q0 -16 -9.5 -27.5t-24.5 -11.5h-21q-15 0 -25 12t-10 27v712q0 15 10 27t25 12h21q15 0 24.5 -11.5t9.5 -27.5v-712z" />
    <glyph glyph-name="section" unicode="&#xa7;" horiz-adv-x="1067" 
d="M961 -59q0 -63 -11 -114.5t-43 -103t-83.5 -86.5t-137.5 -57t-201 -22q-182 0 -313 16q-23 3 -30 12.5t-7 26.5v12q0 35 39 35h4q212 -16 307 -16q113 0 190 20.5t119 61.5t59 92t17 123q0 102 -54 166.5t-222 166.5l-205 125q-168 102 -225.5 178t-57.5 193
q0 141 72 219q-40 44 -56 94t-16 117q0 172 111.5 252t360.5 80q197 0 311 -14q20 -2 27.5 -10.5t7.5 -32.5v-7q0 -23 -9.5 -31.5t-33.5 -6.5q-12 1 -70.5 5t-122.5 7.5t-110 3.5q-201 0 -291 -59t-90 -187q0 -88 50.5 -147.5t198.5 -149.5l201 -123q98 -60 159.5 -110
t95.5 -99t46.5 -94.5t12.5 -105.5q0 -140 -60 -228q60 -80 60 -202zM870 371q0 102 -54.5 167t-221.5 167l-205 124q-80 49 -141 97q-51 -57 -51 -156q0 -88 50.5 -147.5t198.5 -149.5l201 -123q131 -79 191 -137q32 63 32 158z" />
    <glyph glyph-name="dieresis" unicode="&#xa8;" horiz-adv-x="675" 
d="M537 1354q0 -17 -11.5 -28t-27.5 -11h-13q-16 0 -27.5 11t-11.5 28v151q0 15 12 27t27 12h13q15 0 27 -12t12 -27v-151zM229 1354q0 -17 -11.5 -28t-27.5 -11h-12q-16 0 -27.5 11t-11.5 28v151q0 15 12 27t27 12h12q15 0 27 -12t12 -27v-151z" />
    <glyph glyph-name="copyright" unicode="&#xa9;" horiz-adv-x="1495" 
d="M1403 766q0 -178 -88.5 -328.5t-240 -237.5t-329.5 -87q-133 0 -254 51.5t-208.5 139t-139 208.5t-51.5 254t51.5 255t139 210.5t208.5 141t254 52.5q178 0 329.5 -88.5t240 -240.5t88.5 -330zM1323 766q0 157 -77.5 290.5t-210.5 211.5t-290 78t-290 -78t-210 -211.5
t-77 -290.5t77 -289.5t210 -209.5t290 -77t290 77t210.5 209.5t77.5 289.5zM952 375q0 -14 -10.5 -22.5t-21.5 -10.5q-93 -12 -199 -12q-59 0 -109.5 19t-93 60t-66.5 114.5t-24 174.5v148q0 101 24 174.5t66.5 114.5t93 60t109.5 19q106 0 199 -12q12 -2 22 -10t10 -21v-16
q0 -25 -28 -25h-9q-113 11 -194 11q-97 0 -156 -70t-59 -225v-148q0 -155 59 -225t156 -70q81 0 194 11h5q32 0 32 -29v-10z" />
    <glyph glyph-name="ordfeminine" unicode="&#xaa;" horiz-adv-x="548" 
d="M471 961q0 -28 -22 -33q-84 -23 -166 -23q-123 0 -174.5 44.5t-51.5 140.5v14q0 92 63 135t208 43h75v29q0 84 -26.5 116.5t-97.5 32.5q-70 0 -152 -10h-4q-31 0 -31 27v6q0 24 33 28q83 11 154 11q107 0 149.5 -55.5t42.5 -155.5v-350zM403 979v240h-73
q-119 0 -163 -25.5t-44 -89.5v-14q0 -66 32 -94.5t128 -28.5q45 0 120 12z" />
    <glyph glyph-name="guillemotleft" unicode="&#xab;" horiz-adv-x="1095" 
d="M987 188q0 -12 -10 -22l-14 -14q-9 -9 -21 -9q-14 0 -33 15l-364 334q-29 26 -29 59q0 30 29 59l364 334q17 14 33 14q13 0 21 -8l14 -14q10 -10 10 -23q0 -17 -16 -30l-363 -332l363 -332q16 -13 16 -31zM516 188q0 -12 -10 -22l-14 -14q-9 -9 -21 -9q-14 0 -33 15
l-364 334q-29 26 -29 59q0 30 29 59l364 334q18 14 33 14q13 0 21 -8l14 -14q10 -10 10 -23q0 -17 -16 -30l-363 -332l363 -332q16 -13 16 -31z" />
    <glyph glyph-name="logicalnot" unicode="&#xac;" 
d="M1010 594q0 -41 -33 -41h-21q-32 0 -32 41v369h-703q-41 0 -41 32v21q0 33 41 33h756q14 0 23.5 -11.5t9.5 -25.5v-418z" />
    <glyph glyph-name="uni00AD" unicode="&#xad;" horiz-adv-x="704" 
d="M598 559q0 -15 -11 -24t-28 -9h-414q-17 0 -28 9t-11 24v16q0 15 11 26t28 11h414q17 0 28 -11t11 -26v-16z" />
    <glyph glyph-name="registered" unicode="&#xae;" horiz-adv-x="1261" 
d="M1169 991q0 -146 -72 -269.5t-196 -195t-270 -71.5t-270 71.5t-196.5 195t-72.5 269.5t72.5 270t196.5 196.5t270 72.5t270 -72.5t196 -196.5t72 -270zM1098 991q0 193 -137 330t-330 137t-329 -136.5t-136 -330.5q0 -193 136 -329t329 -136q194 0 330.5 136t136.5 329z
M874 676q0 -27 -28 -27h-10q-17 0 -27 15l-186 284q-6 0 -15.5 1t-15.5 1h-100v-268q0 -11 -9 -22t-22 -11h-8q-13 0 -22 11t-9 22v631q0 11 8.5 21.5t20.5 11.5q62 4 141 4q129 0 193.5 -45.5t64.5 -153.5v-4q0 -81 -37 -126t-113 -63l168 -260q6 -9 6 -22zM780 1147v4
q0 72 -44 101.5t-144 29.5q-71 0 -100 -2v-262q15 0 52 -1t48 -1q104 0 146 28.5t42 102.5z" />
    <glyph glyph-name="macron" unicode="&#xaf;" horiz-adv-x="675" 
d="M651 1442q0 -33 -41 -33h-544q-41 0 -41 33v22q0 31 41 31h544q41 0 41 -31v-22z" />
    <glyph glyph-name="degree" unicode="&#xb0;" horiz-adv-x="677" 
d="M616 1255q0 -114 -81 -195t-195 -81t-196.5 81t-82.5 195t82.5 195.5t196.5 81.5t195 -81.5t81 -195.5zM539 1255q0 82 -58.5 141.5t-140.5 59.5q-83 0 -141 -59.5t-58 -141.5t58.5 -140t140.5 -58t140.5 58t58.5 140z" />
    <glyph glyph-name="plusminus" unicode="&#xb1;" 
d="M1051 791q0 -33 -41 -33h-373v-371q0 -41 -33 -41h-20q-33 0 -33 41v371h-371q-41 0 -41 33v20q0 33 41 33h371v373q0 40 33 40h20q33 0 33 -40v-373h373q41 0 41 -33v-20zM1051 33q0 -33 -41 -33h-830q-41 0 -41 33v20q0 33 41 33h830q41 0 41 -33v-20z" />
    <glyph glyph-name="two.superior" unicode="&#xb2;" horiz-adv-x="653" 
d="M137 1452q-12 -1 -21 -0.5t-14.5 6.5t-5.5 19v6q0 20 7.5 28t31.5 11q79 12 166 12q272 0 272 -191q0 -68 -32.5 -124.5t-122.5 -116.5l-113 -76q-91 -61 -117 -112t-26 -128v-28h364q15 0 26 -9t11 -24v-12q0 -33 -37 -33h-409q-16 0 -26.5 12t-10.5 27v67
q0 93 35.5 161.5t142.5 142.5l113 77q70 47 94 81.5t24 94.5q0 119 -188 119q-69 0 -164 -10z" />
    <glyph glyph-name="three.superior" unicode="&#xb3;" horiz-adv-x="653" 
d="M485 944v-22q0 -95 -49.5 -136t-154.5 -41q-39 0 -158 13q-10 1 -19 0.5t-14.5 -6.5t-5.5 -19v-8q0 -11 1.5 -17t9 -12t22.5 -8q79 -14 164 -14q142 0 215 57.5t73 190.5v22q0 125 -96 178q96 60 96 183v14q0 122 -71.5 168.5t-216.5 46.5q-85 0 -164 -14
q-15 -2 -22.5 -8t-9 -12t-1.5 -17v-8q0 -18 10 -22.5t29 -2.5q110 12 158 12q108 0 156 -30.5t48 -112.5v-14q0 -23 -5 -44t-18.5 -44.5t-43 -37.5t-72.5 -14h-207q-37 0 -37 -35v-8q0 -35 37 -35h207q139 0 139 -143z" />
    <glyph glyph-name="acute" unicode="&#xb4;" horiz-adv-x="675" 
d="M578 1579q0 -7 -9 -16l-219 -263q-1 -2 -4 -5q-19 -25 -31 -28q-5 -1 -10 -1h-45q-18 0 -18 14q0 12 8 20l205 263q23 30 47 30h53q23 0 23 -14z" />
    <glyph glyph-name="mu" unicode="&#xb5;" horiz-adv-x="1067" 
d="M924 78q0 -11 -8.5 -22.5t-18.5 -14.5q-161 -53 -350 -53q-209 0 -314 118v-466q0 -16 -9.5 -27.5t-24.5 -11.5h-21q-15 0 -25 12t-10 27v1421q0 16 11 27.5t28 11.5h15q15 0 25.5 -12t10.5 -27v-682q0 -311 314 -311q158 0 287 38v955q0 15 11.5 27t26.5 12h13
q15 0 27 -12t12 -27v-983z" />
    <glyph glyph-name="paragraph" unicode="&#xb6;" horiz-adv-x="1226" 
d="M1083 -360q0 -16 -9.5 -27.5t-24.5 -11.5h-21q-15 0 -25 12t-10 27v1798h-114v-1798q0 -15 -10 -27t-25 -12h-21q-15 0 -25 12t-10 27v923h-223q-216 0 -344.5 120t-128.5 337v45q0 217 128.5 337t344.5 120h486q32 0 32 -39v-1843z" />
    <glyph glyph-name="periodcentered" unicode="&#xb7;" horiz-adv-x="344" 
d="M217 737q0 -17 -11.5 -28t-27.5 -11h-12q-16 0 -27.5 11t-11.5 28v152q0 15 12 27t27 12h12q15 0 27 -12t12 -27v-152z" />
    <glyph glyph-name="cedilla" unicode="&#xb8;" horiz-adv-x="675" 
d="M399 -127q0 -8 -8 -16l-186 -222q-22 -28 -31 -32q-6 -2 -14 -2h-45q-19 0 -19 14q0 12 8 20l172 222q23 30 48 30h53q22 0 22 -14z" />
    <glyph glyph-name="one.superior" unicode="&#xb9;" horiz-adv-x="430" 
d="M188 1448v-731q0 -37 33 -37h17q32 0 32 37v776q0 22 -8 32.5t-35 6.5l-155 -23q-18 -4 -27.5 -11.5t-9.5 -27.5q0 -22 9 -31.5t32 -6.5z" />
    <glyph glyph-name="ordmasculine" unicode="&#xba;" horiz-adv-x="587" 
d="M526 1176q0 -129 -58 -200t-173 -71t-174.5 71.5t-59.5 199.5v75q0 128 59.5 199.5t174.5 71.5t173 -71t58 -200v-75zM459 1176v75q0 209 -164 209q-166 0 -166 -209v-75q0 -209 166 -209q164 0 164 209z" />
    <glyph glyph-name="guillemotright" unicode="&#xbb;" horiz-adv-x="1095" 
d="M1051 551q0 -33 -29 -59l-365 -334q-19 -15 -32 -15q-12 0 -21 9l-14 14q-10 10 -10 22q0 18 16 31l362 332l-362 332q-16 13 -16 30q0 13 10 23l14 14q8 8 21 8q15 0 32 -14l365 -334q29 -29 29 -59zM580 551q0 -33 -29 -59l-365 -334q-19 -15 -32 -15q-12 0 -21 9
l-14 14q-10 10 -10 22q0 18 16 31l362 332l-362 332q-16 13 -16 30q0 13 10 23l14 14q8 8 21 8q14 0 32 -14l365 -334q29 -29 29 -59z" />
    <glyph glyph-name="onequarter" unicode="&#xbc;" horiz-adv-x="1294" 
d="M1061 1511q0 -10 -12 -28l-844 -1444q-13 -23 -21 -31t-22 -8h-56q-16 0 -16 12t10 27l844 1444q13 23 21 31t22 8h57q17 0 17 -11zM215 1448v-731q0 -37 33 -37h16q33 0 33 37v776q0 22 -8 32.5t-35 6.5l-156 -23q-18 -4 -27.5 -11.5t-9.5 -27.5q0 -22 9 -31.5t32 -6.5z
M1020 315h-277q-17 0 -8 15l275 411q10 13 10 -2v-424zM1053 0h16q33 0 33 37v203h94q15 0 26 9t11 25v9q0 16 -11 24t-26 8h-94v471q0 68 -60 68q-47 0 -73 -39l-301 -440q-23 -35 -23 -62q0 -33 23.5 -53t62.5 -20h289v-203q0 -37 33 -37z" />
    <glyph glyph-name="onehalf" unicode="&#xbd;" horiz-adv-x="1357" 
d="M1061 1511q0 -10 -12 -28l-844 -1444q-13 -23 -21 -31t-22 -8h-56q-16 0 -16 12t10 27l844 1444q13 23 21 31t22 8h57q17 0 17 -11zM215 1448v-731q0 -37 33 -37h16q33 0 33 37v776q0 22 -8 32.5t-35 6.5l-156 -23q-18 -4 -27.5 -11.5t-9.5 -27.5q0 -22 9 -31.5t32 -6.5z
M860 772q-12 -1 -21 -0.5t-14.5 6.5t-5.5 19v6q0 20 7.5 28t31.5 11q80 12 166 12q272 0 272 -190q0 -69 -32.5 -125.5t-122.5 -116.5l-113 -76q-91 -61 -117 -112t-26 -128v-28h364q15 0 26 -9t11 -24v-12q0 -33 -37 -33h-409q-16 0 -26.5 12t-10.5 27v67q0 93 35.5 161.5
t142.5 142.5l113 77q70 47 94 82t24 95q0 118 -188 118q-69 0 -164 -10z" />
    <glyph glyph-name="threequarters" unicode="&#xbe;" horiz-adv-x="1460" 
d="M1227 1511q0 -9 -13 -28l-843 -1444q-13 -23 -21 -31t-22 -8h-56q-16 0 -16 12t10 27l844 1444q13 23 21 31t22 8h57q17 0 17 -11zM1186 315h-277q-17 0 -8 15l275 411q10 13 10 -2v-424zM1219 0h16q33 0 33 37v203h94q15 0 26 9t11 25v9q0 16 -11 24t-26 8h-94v471
q0 68 -60 68q-47 0 -73 -39l-301 -440q-23 -35 -23 -62q0 -33 23.5 -53t62.5 -20h289v-203q0 -37 33 -37zM463 944v-22q0 -95 -50 -136t-155 -41q-39 0 -158 13q-10 1 -19 0.5t-14.5 -6.5t-5.5 -19v-8q0 -11 1.5 -17t9 -12t22.5 -8q79 -14 164 -14q142 0 215.5 57.5
t73.5 190.5v22q0 125 -96 178q96 60 96 183v14q0 122 -71.5 168.5t-217.5 46.5q-85 0 -164 -14q-15 -2 -22.5 -8t-9 -12t-1.5 -17v-8q0 -18 10 -22.5t29 -2.5q110 12 158 12q108 0 156.5 -31t48.5 -112v-14q0 -23 -5 -44t-18.5 -44.5t-43 -37.5t-72.5 -14h-207
q-37 0 -37 -35v-8q0 -35 37 -35h207q139 0 139 -143z" />
    <glyph glyph-name="questiondown" unicode="&#xbf;" horiz-adv-x="868" 
d="M625 920q0 -15 -12 -27t-27 -12h-13q-15 0 -26.5 12t-11.5 27v151q0 17 11.5 28t26.5 11h13q16 0 27.5 -11t11.5 -28v-151zM797 -381q0 -34 -35 -39q-118 -14 -244 -14q-80 0 -147.5 15.5t-125 48.5t-90 92.5t-32.5 140.5v16q0 93 46.5 174t178.5 213l62 62
q77 77 99.5 123.5t22.5 130.5v123q0 17 11.5 27.5t27.5 10.5h13q16 0 27.5 -10.5t11.5 -27.5v-123q0 -99 -31 -164.5t-121 -155.5l-57 -57q-118 -118 -155.5 -183t-37.5 -143v-16q0 -115 72.5 -166t224.5 -51q80 0 248 14h4q27 0 27 -25v-16z" />
    <glyph glyph-name="Agrave" unicode="&#xc0;" horiz-adv-x="1267" 
d="M1186 45q6 -23 -1 -37t-28 -14h-24q-12 0 -21 7.5t-12 18.5l-172 555h-590l-168 -555q-3 -10 -13 -18t-20 -8h-26q-20 0 -27.5 14.5t-1.5 36.5l420 1387q14 47 48.5 73.5t84.5 26.5q49 0 83 -26t48 -72zM905 666l-223 743q-12 41 -47 41q-37 0 -47 -39l-226 -745h543z
M752 1640q0 -14 -19 -14h-45q-3 0 -6 0.5t-6 1.5t-4.5 2t-4.5 3.5t-4.5 3.5t-4.5 4.5t-4.5 5.5t-5 7t-5.5 7l-219 262q-8 8 -8 16q0 15 22 15h54q14 0 23.5 -6.5t23.5 -24.5l204 -262q9 -9 9 -21z" />
    <glyph glyph-name="Aacute" unicode="&#xc1;" horiz-adv-x="1267" 
d="M1186 45q6 -23 -1 -37t-28 -14h-24q-12 0 -21 7.5t-12 18.5l-172 555h-590l-168 -555q-3 -10 -13 -18t-20 -8h-26q-20 0 -27.5 14.5t-1.5 36.5l420 1387q14 47 48.5 73.5t84.5 26.5q49 0 83 -26t48 -72zM905 666l-223 743q-12 41 -47 41q-37 0 -47 -39l-226 -745h543z
M850 1937q0 -8 -8 -16l-219 -262q-2 -2 -5.5 -7t-5 -7t-4.5 -5.5t-4.5 -4.5t-4.5 -3.5t-4.5 -3.5t-4.5 -2t-6 -1.5t-6 -0.5h-46q-18 0 -18 14q0 13 8 21l205 262q14 18 23.5 24.5t23.5 6.5h53q23 0 23 -15z" />
    <glyph glyph-name="Acircumflex" unicode="&#xc2;" horiz-adv-x="1267" 
d="M1186 45q6 -23 -1 -37t-28 -14h-24q-12 0 -21 7.5t-12 18.5l-172 555h-590l-168 -555q-3 -10 -13 -18t-20 -8h-26q-20 0 -27.5 14.5t-1.5 36.5l420 1387q14 47 48.5 73.5t84.5 26.5q49 0 83 -26t48 -72zM905 666l-223 743q-12 41 -47 41q-37 0 -47 -39l-226 -745h543z
M934 1640q0 -14 -19 -14h-45q-3 0 -6 0.5t-6 1.5t-4.5 2t-4.5 3.5t-4.5 3.5t-4.5 4.5t-4.5 5.5t-5 7t-5.5 7l-192 231l-193 -231q-2 -2 -5.5 -7t-5 -7t-4.5 -5.5t-4.5 -4.5t-4.5 -3.5t-4.5 -3.5t-4.5 -2t-6 -1.5t-6 -0.5h-45q-18 0 -18 14q0 13 8 21l205 262
q14 18 23.5 24.5t23.5 6.5h82q14 0 23.5 -6.5t23.5 -24.5l205 -262q8 -8 8 -21z" />
    <glyph glyph-name="Atilde" unicode="&#xc3;" horiz-adv-x="1267" 
d="M1186 45q6 -23 -1 -37t-28 -14h-24q-12 0 -21 7.5t-12 18.5l-172 555h-590l-168 -555q-3 -10 -13 -18t-20 -8h-26q-20 0 -27.5 14.5t-1.5 36.5l420 1387q14 47 48.5 73.5t84.5 26.5q49 0 83 -26t48 -72zM905 666l-223 743q-12 41 -47 41q-37 0 -47 -39l-226 -745h543z
M961 1800q0 -92 -42.5 -139t-117.5 -47q-81 0 -137 53l-99 96q-22 22 -32 31t-28.5 18t-37.5 9q-40 0 -62 -24t-22 -85v-53q0 -18 -4 -25.5t-17 -7.5h-34q-13 0 -18 7.5t-5 25.5v53q0 92 43 139t119 47q79 0 135 -53l98 -96q57 -57 101 -57q40 0 61 23.5t21 84.5v53
q0 19 3.5 26t16.5 7h35q13 0 18 -7.5t5 -25.5v-53z" />
    <glyph glyph-name="Adieresis" unicode="&#xc4;" horiz-adv-x="1267" 
d="M1186 45q6 -23 -1 -37t-28 -14h-24q-12 0 -21 7.5t-12 18.5l-172 555h-590l-168 -555q-3 -10 -13 -18t-20 -8h-26q-20 0 -27.5 14.5t-1.5 36.5l420 1387q14 47 48.5 73.5t84.5 26.5q49 0 83 -26t48 -72zM905 666l-223 743q-12 41 -47 41q-37 0 -47 -39l-226 -745h543z
M831 1706q0 -17 -11.5 -28t-26.5 -11h-13q-16 0 -27.5 11t-11.5 28v152q0 15 12 26.5t27 11.5h13q15 0 26.5 -11.5t11.5 -26.5v-152zM524 1706q0 -17 -11.5 -28t-27.5 -11h-12q-16 0 -27.5 11t-11.5 28v152q0 15 12 26.5t27 11.5h12q15 0 27 -11.5t12 -26.5v-152z" />
    <glyph glyph-name="Aring" unicode="&#xc5;" horiz-adv-x="1267" 
d="M1186 45q6 -23 -1 -37t-28 -14h-24q-12 0 -21 7.5t-12 18.5l-172 555h-590l-168 -555q-3 -10 -13 -18t-20 -8h-26q-20 0 -27.5 14.5t-1.5 36.5l420 1387q14 47 48.5 73.5t84.5 26.5q49 0 83 -26t48 -72zM905 666l-223 743q-12 41 -47 41q-37 0 -47 -39l-226 -745h543z
M823 1817q0 -78 -56 -134.5t-134 -56.5t-134.5 56.5t-56.5 134.5t56.5 134t134.5 56t134 -56t56 -134zM752 1817q0 49 -34.5 83.5t-84.5 34.5q-49 0 -83 -34t-34 -84t34 -84.5t83 -34.5t84 35t35 84z" />
    <glyph glyph-name="AE" unicode="&#xc6;" horiz-adv-x="1800" 
d="M1683 35q0 -15 -10.5 -25t-27.5 -10h-607q-89 0 -129.5 40t-40.5 126v409h-549l-167 -555q-3 -10 -13 -18t-20 -8h-27q-20 0 -27.5 14.5t-1.5 36.5l420 1376q14 47 48.5 74t84.5 27h1029q17 0 27.5 -10t10.5 -25v-17q0 -32 -38 -32h-687v-596h687q17 0 27.5 -9t10.5 -24
v-21q0 -15 -10.5 -24.5t-27.5 -9.5h-687v-588q0 -45 15.5 -63.5t64.5 -18.5h607q17 0 27.5 -9t10.5 -24v-16zM868 666v772h-252q-37 0 -47 -39l-225 -733h524z" />
    <glyph glyph-name="Ccedilla" unicode="&#xc7;" horiz-adv-x="1099" 
d="M1018 43q0 -14 -12 -23.5t-27 -11.5q-177 -20 -354 -20q-81 0 -151 19t-136 65t-112.5 117t-74.5 182.5t-28 253.5v270q0 142 28 253.5t74.5 182.5t112.5 117t136 65t151 19q169 0 354 -21q15 -2 27 -11t12 -23v-25q0 -17 -9.5 -22t-29.5 -3q-176 19 -354 19
q-89 0 -161.5 -30t-130 -93.5t-89 -172t-31.5 -255.5v-270q0 -147 31.5 -255.5t89 -172t130 -93.5t161.5 -30q187 0 354 18q20 2 29.5 -2.5t9.5 -21.5v-25zM700 -127q0 -8 -8 -16l-186 -222q-22 -28 -31 -32q-6 -2 -14 -2h-45q-19 0 -19 14q0 11 9 20l172 222q23 30 47 30
h53q22 0 22 -14z" />
    <glyph glyph-name="Egrave" unicode="&#xc8;" horiz-adv-x="1091" 
d="M979 35q0 -15 -11 -25t-28 -10h-528q-123 0 -185.5 52.5t-62.5 176.5v1063q0 124 62.5 177t185.5 53h528q17 0 28 -10t11 -25v-17q0 -15 -10.5 -23.5t-28.5 -8.5h-528q-82 0 -120 -28.5t-38 -117.5v-450h686q17 0 28 -9t11 -24v-21q0 -15 -11 -24.5t-28 -9.5h-686v-525
q0 -89 38 -117t120 -28h528q17 0 28 -9t11 -24v-16zM686 1640q0 -14 -18 -14h-45q-3 0 -6 0.5t-6 1.5t-4.5 2t-4.5 3.5t-4.5 3.5t-4.5 4.5t-4.5 5.5t-5 7t-5.5 7l-220 262q-8 8 -8 16q0 15 23 15h53q14 0 23.5 -6.5t23.5 -24.5l205 -262q8 -8 8 -21z" />
    <glyph glyph-name="Eacute" unicode="&#xc9;" horiz-adv-x="1091" 
d="M979 35q0 -15 -11 -25t-28 -10h-528q-123 0 -185.5 52.5t-62.5 176.5v1063q0 124 62.5 177t185.5 53h528q17 0 28 -10t11 -25v-17q0 -15 -10.5 -23.5t-28.5 -8.5h-528q-82 0 -120 -28.5t-38 -117.5v-450h686q17 0 28 -9t11 -24v-21q0 -15 -11 -24.5t-28 -9.5h-686v-525
q0 -89 38 -117t120 -28h528q17 0 28 -9t11 -24v-16zM829 1939q0 -8 -8 -16l-219 -262q-2 -2 -5.5 -7t-5 -7t-4.5 -5.5t-4.5 -4.5t-4.5 -3.5t-4.5 -3.5t-4.5 -2t-6 -1.5t-6 -0.5h-45q-18 0 -18 14q0 13 8 21l205 262q14 18 23.5 24.5t23.5 6.5h53q22 0 22 -15z" />
    <glyph glyph-name="Ecircumflex" unicode="&#xca;" horiz-adv-x="1091" 
d="M979 35q0 -15 -11 -25t-28 -10h-528q-123 0 -185.5 52.5t-62.5 176.5v1063q0 124 62.5 177t185.5 53h528q17 0 28 -10t11 -25v-17q0 -15 -10.5 -23.5t-28.5 -8.5h-528q-82 0 -120 -28.5t-38 -117.5v-450h686q17 0 28 -9t11 -24v-21q0 -15 -11 -24.5t-28 -9.5h-686v-525
q0 -89 38 -117t120 -28h528q17 0 28 -9t11 -24v-16zM870 1640q0 -14 -18 -14h-45q-3 0 -6 0.5t-6 1.5t-4.5 2t-4.5 3.5t-4.5 3.5t-4.5 4.5t-4.5 5.5t-5 7t-5.5 7l-193 231l-192 -231q-2 -2 -5.5 -7t-5 -7t-4.5 -5.5t-4.5 -4.5t-4.5 -3.5t-4.5 -3.5t-4.5 -2t-6 -1.5t-6 -0.5
h-45q-19 0 -19 14q0 13 8 21l205 262q14 18 23.5 24.5t23.5 6.5h82q14 0 23.5 -6.5t23.5 -24.5l205 -262q8 -8 8 -21z" />
    <glyph glyph-name="Edieresis" unicode="&#xcb;" horiz-adv-x="1091" 
d="M979 35q0 -15 -11 -25t-28 -10h-528q-123 0 -185.5 52.5t-62.5 176.5v1063q0 124 62.5 177t185.5 53h528q17 0 28 -10t11 -25v-17q0 -15 -10.5 -23.5t-28.5 -8.5h-528q-82 0 -120 -28.5t-38 -117.5v-450h686q17 0 28 -9t11 -24v-21q0 -15 -11 -24.5t-28 -9.5h-686v-525
q0 -89 38 -117t120 -28h528q17 0 28 -9t11 -24v-16zM780 1706q0 -17 -11.5 -28t-27.5 -11h-12q-16 0 -27.5 11t-11.5 28v152q0 15 12 26.5t27 11.5h12q15 0 27 -11.5t12 -26.5v-152zM473 1706q0 -17 -11.5 -28t-27.5 -11h-12q-16 0 -27.5 11t-11.5 28v152q0 15 12 26.5
t27 11.5h12q15 0 27 -11.5t12 -26.5v-152z" />
    <glyph glyph-name="Igrave" unicode="&#xcc;" horiz-adv-x="458" 
d="M274 39q0 -16 -9.5 -27.5t-24.5 -11.5h-21q-15 0 -25 12t-10 27v1444q0 15 10 27t25 12h21q15 0 24.5 -11.5t9.5 -27.5v-1444zM360 1640q0 -14 -18 -14h-45q-3 0 -6 0.5t-6 1.5t-4.5 2t-4.5 3.5t-4.5 3.5t-4.5 4.5t-4.5 5.5t-5 7t-5.5 7l-219 262q-8 8 -8 16q0 15 22 15
h53q14 0 23.5 -6.5t23.5 -24.5l205 -262q8 -8 8 -21z" />
    <glyph glyph-name="Iacute" unicode="&#xcd;" horiz-adv-x="458" 
d="M274 39q0 -16 -9.5 -27.5t-24.5 -11.5h-21q-15 0 -25 12t-10 27v1444q0 15 10 27t25 12h21q15 0 24.5 -11.5t9.5 -27.5v-1444zM438 1939q0 -8 -8 -16l-219 -262q-2 -2 -5.5 -7t-5 -7t-4.5 -5.5t-4.5 -4.5t-4.5 -3.5t-4.5 -3.5t-4.5 -2t-6 -1.5t-6 -0.5h-45q-19 0 -19 14
q0 12 9 21l204 262q14 18 23.5 24.5t23.5 6.5h54q22 0 22 -15z" />
    <glyph glyph-name="Icircumflex" unicode="&#xce;" horiz-adv-x="458" 
d="M274 39q0 -16 -9.5 -27.5t-24.5 -11.5h-21q-15 0 -25 12t-10 27v1444q0 15 10 27t25 12h21q15 0 24.5 -11.5t9.5 -27.5v-1444zM530 1640q0 -14 -18 -14h-45q-3 0 -6 0.5t-6 1.5t-4.5 2t-4.5 3.5t-4.5 3.5t-4.5 4.5t-4.5 5.5t-5 7t-5.5 7l-193 231l-192 -231
q-2 -2 -5.5 -7t-5 -7t-4.5 -5.5t-4.5 -4.5t-4.5 -3.5t-4.5 -3.5t-4.5 -2t-6 -1.5t-6 -0.5h-45q-19 0 -19 14q0 12 9 21l204 262q14 18 23.5 24.5t23.5 6.5h82q14 0 23.5 -6.5t23.5 -24.5l205 -262q8 -8 8 -21z" />
    <glyph glyph-name="Idieresis" unicode="&#xcf;" horiz-adv-x="458" 
d="M274 39q0 -16 -9.5 -27.5t-24.5 -11.5h-21q-15 0 -25 12t-10 27v1444q0 15 10 27t25 12h21q15 0 24.5 -11.5t9.5 -27.5v-1444zM428 1706q0 -17 -11.5 -28t-27.5 -11h-12q-16 0 -27.5 11t-11.5 28v152q0 15 12 26.5t27 11.5h12q15 0 27 -11.5t12 -26.5v-152zM121 1706
q0 -17 -11.5 -28t-27.5 -11h-12q-16 0 -27.5 11t-11.5 28v152q0 15 12 26.5t27 11.5h12q15 0 27 -11.5t12 -26.5v-152z" />
    <glyph glyph-name="Eth" unicode="&#xd0;" horiz-adv-x="1255" 
d="M1133 633q0 -138 -29 -247.5t-81 -183.5t-127.5 -122.5t-164.5 -70t-196 -21.5q-242 0 -336 16q-14 3 -24.5 14.5t-10.5 24.5v711h-146q-17 0 -27.5 9.5t-10.5 24.5v21q0 15 10.5 24t27.5 9h146v635q0 13 10.5 24.5t24.5 14.5q94 16 336 16q598 0 598 -645v-254z
M1042 633v254q0 128 -25.5 226t-70 161.5t-109.5 104t-138.5 57t-163.5 16.5q-101 0 -281 -12v-598h174q17 0 28 -9t11 -24v-21q0 -15 -11 -24.5t-28 -9.5h-174v-678q120 -8 281 -8q507 0 507 565z" />
    <glyph glyph-name="Ntilde" unicode="&#xd1;" horiz-adv-x="1333" 
d="M1169 92q0 -48 -26 -76t-66 -28q-51 0 -69 14q-23 19 -37 47l-690 1383q-7 14 -17 14t-10 -14v-1393q0 -15 -10 -27t-25 -12h-20q-15 0 -25 12t-10 27v1393q0 45 27.5 72.5t72.5 27.5q40 0 61.5 -16t36.5 -48l689 -1380q7 -14 16 -14q10 0 10 18v1391q0 16 9.5 27.5
t23.5 11.5h25q16 0 25 -11.5t9 -27.5v-1391zM993 1800q0 -92 -42 -139t-117 -47q-82 0 -138 53l-98 96q-22 22 -32 31t-28.5 18t-37.5 9q-40 0 -62 -24t-22 -85v-53q0 -18 -4 -25.5t-17 -7.5h-35q-13 0 -17.5 7.5t-4.5 25.5v53q0 92 43 139t119 47q79 0 135 -53l98 -96
q57 -57 101 -57q40 0 60.5 23.5t20.5 84.5v53q0 18 4 25.5t17 7.5h35q13 0 17.5 -7.5t4.5 -25.5v-53z" />
    <glyph glyph-name="Ograve" unicode="&#xd2;" horiz-adv-x="1294" 
d="M1171 633q0 -167 -38.5 -292.5t-109.5 -202t-165 -113.5t-211 -37t-211 37t-165 113.5t-109.5 202t-38.5 292.5v254q0 167 38.5 292.5t109.5 202t165 113.5t211 37t211 -37t165 -113.5t109.5 -202t38.5 -292.5v-254zM1081 633v254q0 123 -21.5 218.5t-59.5 159t-93.5 105
t-119 59t-140.5 17.5t-140.5 -17.5t-119 -59t-93.5 -105t-59.5 -159t-21.5 -218.5v-254q0 -123 21.5 -218.5t59.5 -159t93.5 -105t119 -59t140.5 -17.5t140.5 17.5t119 59t93.5 105t59.5 159t21.5 218.5zM758 1640q0 -14 -19 -14h-45q-3 0 -6 0.5t-6 1.5t-4.5 2t-4.5 3.5
t-4.5 3.5t-4.5 4.5t-4.5 5.5t-5 7t-5.5 7l-219 262q-8 8 -8 16q0 15 22 15h54q14 0 23.5 -6.5t23.5 -24.5l205 -262q8 -8 8 -21z" />
    <glyph glyph-name="Oacute" unicode="&#xd3;" horiz-adv-x="1294" 
d="M1171 633q0 -167 -38.5 -292.5t-109.5 -202t-165 -113.5t-211 -37t-211 37t-165 113.5t-109.5 202t-38.5 292.5v254q0 167 38.5 292.5t109.5 202t165 113.5t211 37t211 -37t165 -113.5t109.5 -202t38.5 -292.5v-254zM1081 633v254q0 123 -21.5 218.5t-59.5 159t-93.5 105
t-119 59t-140.5 17.5t-140.5 -17.5t-119 -59t-93.5 -105t-59.5 -159t-21.5 -218.5v-254q0 -123 21.5 -218.5t59.5 -159t93.5 -105t119 -59t140.5 -17.5t140.5 17.5t119 59t93.5 105t59.5 159t21.5 218.5zM854 1939q0 -8 -8 -16l-219 -262q-2 -2 -5.5 -7t-5 -7t-4.5 -5.5
t-4.5 -4.5t-4.5 -3.5t-4.5 -3.5t-4.5 -2t-6 -1.5t-6 -0.5h-45q-19 0 -19 14q0 13 8 21l205 262q14 18 23.5 24.5t23.5 6.5h53q23 0 23 -15z" />
    <glyph glyph-name="Ocircumflex" unicode="&#xd4;" horiz-adv-x="1294" 
d="M1171 633q0 -167 -38.5 -292.5t-109.5 -202t-165 -113.5t-211 -37t-211 37t-165 113.5t-109.5 202t-38.5 292.5v254q0 167 38.5 292.5t109.5 202t165 113.5t211 37t211 -37t165 -113.5t109.5 -202t38.5 -292.5v-254zM1081 633v254q0 123 -21.5 218.5t-59.5 159t-93.5 105
t-119 59t-140.5 17.5t-140.5 -17.5t-119 -59t-93.5 -105t-59.5 -159t-21.5 -218.5v-254q0 -123 21.5 -218.5t59.5 -159t93.5 -105t119 -59t140.5 -17.5t140.5 17.5t119 59t93.5 105t59.5 159t21.5 218.5zM948 1640q0 -14 -18 -14h-45q-3 0 -6 0.5t-6 1.5t-4.5 2t-4.5 3.5
t-4.5 3.5t-4.5 4.5t-4.5 5.5t-5 7t-5.5 7l-193 231l-192 -231q-2 -2 -5.5 -7t-5 -7t-4.5 -5.5t-4.5 -4.5t-4.5 -3.5t-4.5 -3.5t-4.5 -2t-6 -1.5t-6 -0.5h-45q-19 0 -19 14q0 13 8 21l205 262q14 18 23.5 24.5t23.5 6.5h82q14 0 23.5 -6.5t23.5 -24.5l205 -262q8 -8 8 -21z
" />
    <glyph glyph-name="Otilde" unicode="&#xd5;" horiz-adv-x="1294" 
d="M1171 633q0 -167 -38.5 -292.5t-109.5 -202t-165 -113.5t-211 -37t-211 37t-165 113.5t-109.5 202t-38.5 292.5v254q0 167 38.5 292.5t109.5 202t165 113.5t211 37t211 -37t165 -113.5t109.5 -202t38.5 -292.5v-254zM1081 633v254q0 123 -21.5 218.5t-59.5 159t-93.5 105
t-119 59t-140.5 17.5t-140.5 -17.5t-119 -59t-93.5 -105t-59.5 -159t-21.5 -218.5v-254q0 -123 21.5 -218.5t59.5 -159t93.5 -105t119 -59t140.5 -17.5t140.5 17.5t119 59t93.5 105t59.5 159t21.5 218.5zM975 1800q0 -92 -42.5 -139t-117.5 -47q-81 0 -137 53l-98 96
q-21 21 -32 30.5t-29.5 18.5t-37.5 9q-40 0 -62 -24t-22 -85v-53q0 -19 -3.5 -26t-16.5 -7h-35q-13 0 -18 7.5t-5 25.5v53q0 92 43 139t119 47q79 0 135 -53l99 -96q57 -57 100 -57q40 0 61 23.5t21 84.5v53q0 18 4 25.5t17 7.5h34q13 0 18 -7.5t5 -25.5v-53z" />
    <glyph glyph-name="Odieresis" unicode="&#xd6;" horiz-adv-x="1294" 
d="M1171 633q0 -167 -38.5 -292.5t-109.5 -202t-165 -113.5t-211 -37t-211 37t-165 113.5t-109.5 202t-38.5 292.5v254q0 167 38.5 292.5t109.5 202t165 113.5t211 37t211 -37t165 -113.5t109.5 -202t38.5 -292.5v-254zM1081 633v254q0 123 -21.5 218.5t-59.5 159t-93.5 105
t-119 59t-140.5 17.5t-140.5 -17.5t-119 -59t-93.5 -105t-59.5 -159t-21.5 -218.5v-254q0 -123 21.5 -218.5t59.5 -159t93.5 -105t119 -59t140.5 -17.5t140.5 17.5t119 59t93.5 105t59.5 159t21.5 218.5zM846 1706q0 -17 -11.5 -28t-27.5 -11h-12q-16 0 -27.5 11t-11.5 28
v152q0 15 12 26.5t27 11.5h12q15 0 27 -11.5t12 -26.5v-152zM539 1706q0 -17 -11.5 -28t-27.5 -11h-13q-15 0 -26.5 11t-11.5 28v152q0 15 11.5 26.5t26.5 11.5h13q15 0 27 -11.5t12 -26.5v-152z" />
    <glyph glyph-name="multiply" unicode="&#xd7;" 
d="M963 1122q0 -13 -17 -30l-293 -291l293 -293q17 -17 17 -31q0 -11 -11 -22l-14 -15q-10 -10 -23 -10q-14 0 -30 16l-291 293l-291 -290q-17 -17 -31 -17q-12 0 -22 10l-14 15q-11 11 -11 22q0 14 17 31l290 291l-290 291q-17 17 -17 30q0 10 11 21l14 14q10 10 22 10
q15 0 31 -16l291 -291l291 293q16 16 30 16q13 0 23 -10l14 -14q11 -11 11 -23z" />
    <glyph glyph-name="Oslash" unicode="&#xd8;" horiz-adv-x="1294" 
d="M1221 1499q0 -5 -7 -16l-133 -185q90 -158 90 -411v-254q0 -167 -38.5 -292.5t-109.5 -202t-165 -113.5t-211 -37q-251 0 -387 164l-90 -125q-29 -39 -53 -39h-21q-22 0 -22 22q0 8 6 17l135 188q-92 156 -92 418v254q0 167 38.5 292.5t109.5 202t165 113.5t211 37
q256 0 391 -168l86 119q29 39 54 39h20q10 0 16.5 -7t6.5 -16zM985 1288q-109 158 -338 158q-77 0 -140.5 -17.5t-119 -59t-93.5 -105t-59.5 -159t-21.5 -218.5v-254q0 -209 59 -336zM1081 633v254q0 204 -57 330l-711 -990q109 -153 334 -153q77 0 140.5 17.5t119 59
t93.5 105t59.5 159t21.5 218.5z" />
    <glyph glyph-name="Ugrave" unicode="&#xd9;" horiz-adv-x="1296" 
d="M1133 541q0 -266 -119.5 -409.5t-364.5 -143.5t-365 143.5t-120 409.5v942q0 15 10 27t25 12h20q15 0 25 -12t10 -27v-942q0 -231 93 -350t302 -119q208 0 300.5 118.5t92.5 350.5v942q0 15 10 27t25 12h21q15 0 25 -12t10 -27v-942zM754 1640q0 -14 -19 -14h-45
q-3 0 -6 0.5t-6 1.5t-4.5 2t-4.5 3.5t-4.5 3.5t-4.5 4.5t-4.5 5.5t-5 7t-5.5 7l-219 262q-8 8 -8 16q0 15 22 15h54q14 0 23.5 -6.5t23.5 -24.5l204 -262q9 -9 9 -21z" />
    <glyph glyph-name="Uacute" unicode="&#xda;" horiz-adv-x="1296" 
d="M1133 541q0 -266 -119.5 -409.5t-364.5 -143.5t-365 143.5t-120 409.5v942q0 15 10 27t25 12h20q15 0 25 -12t10 -27v-942q0 -231 93 -350t302 -119q208 0 300.5 118.5t92.5 350.5v942q0 15 10 27t25 12h21q15 0 25 -12t10 -27v-942zM877 1939q0 -7 -9 -16l-219 -262
q-2 -2 -5.5 -7t-5 -7t-4.5 -5.5t-4.5 -4.5t-4.5 -3.5t-4.5 -3.5t-4.5 -2t-6 -1.5t-6 -0.5h-45q-18 0 -18 14q0 13 8 21l205 262q14 18 23.5 24.5t23.5 6.5h53q23 0 23 -15z" />
    <glyph glyph-name="Ucircumflex" unicode="&#xdb;" horiz-adv-x="1296" 
d="M1133 541q0 -266 -119.5 -409.5t-364.5 -143.5t-365 143.5t-120 409.5v942q0 15 10 27t25 12h20q15 0 25 -12t10 -27v-942q0 -231 93 -350t302 -119q208 0 300.5 118.5t92.5 350.5v942q0 15 10 27t25 12h21q15 0 25 -12t10 -27v-942zM948 1640q0 -14 -18 -14h-45
q-3 0 -6 0.5t-6 1.5t-4.5 2t-4.5 3.5t-4.5 3.5t-4.5 4.5t-4.5 5.5t-5 7t-5.5 7l-193 231l-192 -231q-2 -2 -5.5 -7t-5 -7t-4.5 -5.5t-4.5 -4.5t-4.5 -3.5t-4.5 -3.5t-4.5 -2t-6 -1.5t-6 -0.5h-45q-19 0 -19 14q0 13 8 21l205 262q14 18 23.5 24.5t23.5 6.5h82
q14 0 23.5 -6.5t23.5 -24.5l205 -262q8 -8 8 -21z" />
    <glyph glyph-name="Udieresis" unicode="&#xdc;" horiz-adv-x="1296" 
d="M1133 541q0 -266 -119.5 -409.5t-364.5 -143.5t-365 143.5t-120 409.5v942q0 15 10 27t25 12h20q15 0 25 -12t10 -27v-942q0 -231 93 -350t302 -119q208 0 300.5 118.5t92.5 350.5v942q0 15 10 27t25 12h21q15 0 25 -12t10 -27v-942zM846 1706q0 -17 -11.5 -28t-27.5 -11
h-12q-16 0 -27.5 11t-11.5 28v152q0 15 12 26.5t27 11.5h12q15 0 27 -11.5t12 -26.5v-152zM539 1706q0 -17 -11.5 -28t-27.5 -11h-13q-15 0 -26.5 11t-11.5 28v152q0 15 11.5 26.5t26.5 11.5h13q15 0 27 -11.5t12 -26.5v-152z" />
    <glyph glyph-name="Yacute" unicode="&#xdd;" horiz-adv-x="1128" 
d="M1028 1466l-323 -714q-46 -99 -97 -119v-594q0 -15 -10 -27t-25 -12h-20q-15 0 -25 12t-10 27v594q-50 19 -96 119l-324 714q-11 28 -3 42t32 14h20q9 0 18.5 -8t14.5 -17l322 -717q21 -45 32 -58t29 -13q19 0 30.5 13.5t31.5 57.5l321 717q5 9 14.5 17t18.5 8h20
q24 0 32 -14t-3 -42zM801 1939q0 -8 -8 -16l-220 -262q-2 -2 -5.5 -7t-5 -7t-4.5 -5.5t-4.5 -4.5t-4.5 -3.5t-4.5 -3.5t-4.5 -2t-6 -1.5t-6 -0.5h-45q-18 0 -18 14q0 13 8 21l205 262q14 18 23.5 24.5t23.5 6.5h53q23 0 23 -15z" />
    <glyph glyph-name="Thorn" unicode="&#xde;" horiz-adv-x="1105" 
d="M1034 885q0 -233 -142 -336t-415 -103q-95 0 -223 9v-416q0 -15 -10 -27t-25 -12h-20q-15 0 -25 12t-10 27v1444q0 15 10 27t25 12h20q15 0 25 -12t10 -27v-154q105 6 223 6q557 0 557 -415v-35zM944 885v35q0 184 -114 259.5t-353 75.5q-135 0 -223 -6v-714
q142 -9 223 -9q242 0 354.5 83.5t112.5 275.5z" />
    <glyph glyph-name="germandbls" unicode="&#xdf;" horiz-adv-x="1112" 
d="M999 428q0 -117 -38 -204t-105 -137.5t-150.5 -74.5t-183.5 -24q-14 0 -38.5 2.5t-43.5 3.5q-18 0 -29.5 10t-11.5 27v16q0 25 35 25h6q22 -1 45 -2.5t37 -1.5q387 0 387 360v16q0 137 -99.5 225.5t-274.5 88.5h-84q-41 0 -41 33v18q0 33 41 33h84q87 0 153.5 24.5
t105.5 67.5t58.5 95t19.5 112v14q0 142 -76 219.5t-233 77.5q-67 0 -122 -20t-100.5 -64t-71 -124t-25.5 -191v-1012q0 -18 -9 -29.5t-26 -11.5h-25q-30 0 -30 41v1010q0 238 111.5 359.5t297.5 121.5q180 0 290 -98t110 -279v-14q0 -120 -71 -210.5t-171 -129.5
q124 -36 201 -131.5t77 -225.5v-16z" />
    <glyph glyph-name="agrave" unicode="&#xe0;" horiz-adv-x="999" 
d="M856 41q0 -17 -12 -29t-29 -12h-10q-17 0 -29 12t-12 29v51q-189 -104 -348 -104q-49 0 -92 9.5t-84.5 33t-71.5 60t-48 94.5t-18 132v27q0 108 48.5 176t160.5 103.5t297 35.5h158v74q0 163 -55.5 230t-202.5 67q-118 0 -291 -18q-47 -5 -47 30v13q0 19 11 26.5t36 10.5
q155 18 291 18q101 0 170.5 -27t107.5 -79.5t54 -117.5t16 -153v-692zM766 172v408h-158q-231 0 -323 -52.5t-92 -183.5v-27q0 -249 223 -249q86 0 166.5 24t183.5 80zM598 1280q0 -14 -18 -14h-45q-14 0 -22 7t-24 27l-219 263q-8 8 -8 16q0 14 23 14h53q24 0 47 -30
l205 -263q8 -8 8 -20z" />
    <glyph glyph-name="aacute" unicode="&#xe1;" horiz-adv-x="999" 
d="M856 41q0 -17 -12 -29t-29 -12h-10q-17 0 -29 12t-12 29v51q-189 -104 -348 -104q-49 0 -92 9.5t-84.5 33t-71.5 60t-48 94.5t-18 132v27q0 108 48.5 176t160.5 103.5t297 35.5h158v74q0 163 -55.5 230t-202.5 67q-118 0 -291 -18q-47 -5 -47 30v13q0 19 11 26.5t36 10.5
q155 18 291 18q101 0 170.5 -27t107.5 -79.5t54 -117.5t16 -153v-692zM766 172v408h-158q-231 0 -323 -52.5t-92 -183.5v-27q0 -249 223 -249q86 0 166.5 24t183.5 80zM741 1579q0 -8 -8 -16l-219 -263q-1 -2 -4 -5q-19 -25 -31 -28q-5 -1 -10 -1h-45q-18 0 -18 14
q0 12 8 20l204 263q23 30 48 30h53q22 0 22 -14z" />
    <glyph glyph-name="acircumflex" unicode="&#xe2;" horiz-adv-x="999" 
d="M856 41q0 -17 -12 -29t-29 -12h-10q-17 0 -29 12t-12 29v51q-189 -104 -348 -104q-49 0 -92 9.5t-84.5 33t-71.5 60t-48 94.5t-18 132v27q0 108 48.5 176t160.5 103.5t297 35.5h158v74q0 163 -55.5 230t-202.5 67q-118 0 -291 -18q-47 -5 -47 30v13q0 19 11 26.5t36 10.5
q155 18 291 18q101 0 170.5 -27t107.5 -79.5t54 -117.5t16 -153v-692zM766 172v408h-158q-231 0 -323 -52.5t-92 -183.5v-27q0 -249 223 -249q86 0 166.5 24t183.5 80zM801 1280q0 -14 -19 -14h-45q-10 0 -17.5 5t-11.5 9t-16 20l-192 232l-193 -232q-1 -2 -4 -5
q-19 -25 -31 -28q-5 -1 -10 -1h-45q-18 0 -18 14q0 12 8 20l205 263q23 30 47 30h82q24 0 47 -30l205 -263q8 -8 8 -20z" />
    <glyph glyph-name="atilde" unicode="&#xe3;" horiz-adv-x="999" 
d="M856 41q0 -17 -12 -29t-29 -12h-10q-17 0 -29 12t-12 29v51q-189 -104 -348 -104q-49 0 -92 9.5t-84.5 33t-71.5 60t-48 94.5t-18 132v27q0 108 48.5 176t160.5 103.5t297 35.5h158v74q0 163 -55.5 230t-202.5 67q-118 0 -291 -18q-47 -5 -47 30v13q0 19 11 26.5t36 10.5
q155 18 291 18q101 0 170.5 -27t107.5 -79.5t54 -117.5t16 -153v-692zM766 172v408h-158q-231 0 -323 -52.5t-92 -183.5v-27q0 -249 223 -249q86 0 166.5 24t183.5 80zM827 1473q0 -92 -42 -139.5t-117 -47.5q-82 0 -138 53l-98 97q-21 21 -32 30.5t-29 18t-37 8.5
q-40 0 -62 -24t-22 -85v-53q0 -18 -4 -25.5t-17 -7.5h-34q-13 0 -18 7.5t-5 25.5v53q0 92 43.5 139.5t118.5 47.5q79 0 135 -53l98 -97q57 -57 101 -57q40 0 61 24t21 85v53q0 19 3.5 26t16.5 7h35q13 0 17.5 -7.5t4.5 -25.5v-53z" />
    <glyph glyph-name="adieresis" unicode="&#xe4;" horiz-adv-x="999" 
d="M856 41q0 -17 -12 -29t-29 -12h-10q-17 0 -29 12t-12 29v51q-189 -104 -348 -104q-49 0 -92 9.5t-84.5 33t-71.5 60t-48 94.5t-18 132v27q0 108 48.5 176t160.5 103.5t297 35.5h158v74q0 163 -55.5 230t-202.5 67q-118 0 -291 -18q-47 -5 -47 30v13q0 19 11 26.5t36 10.5
q155 18 291 18q101 0 170.5 -27t107.5 -79.5t54 -117.5t16 -153v-692zM766 172v408h-158q-231 0 -323 -52.5t-92 -183.5v-27q0 -249 223 -249q86 0 166.5 24t183.5 80zM698 1354q0 -17 -11.5 -28t-27.5 -11h-12q-16 0 -27.5 11t-11.5 28v151q0 15 12 27t27 12h12
q15 0 27 -12t12 -27v-151zM391 1354q0 -17 -11.5 -28t-27.5 -11h-12q-16 0 -27.5 11t-11.5 28v151q0 15 12 27t27 12h12q15 0 27 -12t12 -27v-151z" />
    <glyph glyph-name="aring" unicode="&#xe5;" horiz-adv-x="999" 
d="M856 41q0 -17 -12 -29t-29 -12h-10q-17 0 -29 12t-12 29v51q-189 -104 -348 -104q-49 0 -92 9.5t-84.5 33t-71.5 60t-48 94.5t-18 132v27q0 108 48.5 176t160.5 103.5t297 35.5h158v74q0 163 -55.5 230t-202.5 67q-118 0 -291 -18q-47 -5 -47 30v13q0 19 11 26.5t36 10.5
q155 18 291 18q101 0 170.5 -27t107.5 -79.5t54 -117.5t16 -153v-692zM766 172v408h-158q-231 0 -323 -52.5t-92 -183.5v-27q0 -249 223 -249q86 0 166.5 24t183.5 80zM690 1430q0 -78 -56 -134.5t-134 -56.5t-134.5 56.5t-56.5 134.5t56.5 134t134.5 56t134 -56t56 -134z
M618 1430q0 50 -34 84t-84 34q-49 0 -83 -34t-34 -84t34 -84.5t83 -34.5t83.5 34.5t34.5 84.5z" />
    <glyph glyph-name="ae" unicode="&#xe6;" horiz-adv-x="1699" 
d="M1587 567q0 -17 -11.5 -28t-27.5 -11h-692v-110q0 -131 21.5 -188t66.5 -91q94 -71 283 -71q133 0 303 34q2 0 6 1t6 1q31 0 31 -28v-15q0 -17 -8 -25.5t-31 -12.5q-172 -35 -307 -35q-323 0 -420 184q-29 -40 -55.5 -67t-71.5 -57t-111.5 -45t-152.5 -15q-49 0 -92 9.5
t-84.5 33t-71.5 60t-48 94.5t-18 132v27q0 108 48.5 176t160.5 103.5t297 35.5h158v74q0 163 -55.5 230t-202.5 67q-118 0 -291 -18h-8q-39 0 -39 30v13q0 31 47 37q155 18 291 18q140 0 217 -51t106 -148q110 199 349 199q205 0 306 -130t101 -357v-56zM1497 610v13
q0 201 -74.5 304t-242.5 103q-164 0 -244 -108t-80 -299v-13h641zM766 418v160h-158q-232 0 -323.5 -51.5t-91.5 -182.5v-27q0 -249 223 -249q183 0 266.5 81t83.5 269z" />
    <glyph glyph-name="ccedilla" unicode="&#xe7;" horiz-adv-x="894" 
d="M805 43q0 -18 -8 -26t-31 -11q-155 -18 -248 -18q-106 0 -186 39t-127 108.5t-69.5 156.5t-22.5 191v138q0 105 22.5 191.5t69.5 154.5t126.5 105.5t186.5 37.5q93 0 248 -18q23 -3 31 -11t8 -26v-15q0 -35 -43 -28q-144 18 -244 18q-167 0 -241 -106t-74 -303v-138
q0 -415 315 -415q100 0 244 18q19 3 31 -4.5t12 -24.5v-14zM598 -127q0 -8 -8 -16l-187 -222q-22 -28 -31 -32q-6 -2 -14 -2h-45q-18 0 -18 14q0 12 8 20l172 222q23 30 47 30h53q23 0 23 -14z" />
    <glyph glyph-name="egrave" unicode="&#xe8;" horiz-adv-x="1046" 
d="M934 567q0 -17 -11.5 -28t-27.5 -11h-692v-43q0 -100 19.5 -175t51.5 -120.5t81 -73.5t100.5 -38t117.5 -10q134 0 304 34q43 9 43 -26v-15q0 -17 -8 -25.5t-31 -12.5q-171 -35 -308 -35q-80 0 -146 14t-125.5 49.5t-100 91t-64.5 142.5t-24 200v136q0 219 108 354
t305 135q205 0 306.5 -130t101.5 -357v-56zM844 610v13q0 201 -75 304t-243 103q-164 0 -243.5 -109t-79.5 -300v-11h641zM618 1280q0 -14 -18 -14h-45q-10 0 -17.5 5t-11.5 9t-16 20l-219 263q-8 8 -8 16q0 14 22 14h53q25 0 48 -30l204 -263q8 -8 8 -20z" />
    <glyph glyph-name="eacute" unicode="&#xe9;" horiz-adv-x="1046" 
d="M934 567q0 -17 -11.5 -28t-27.5 -11h-692v-43q0 -100 19.5 -175t51.5 -120.5t81 -73.5t100.5 -38t117.5 -10q134 0 304 34q43 9 43 -26v-15q0 -17 -8 -25.5t-31 -12.5q-171 -35 -308 -35q-80 0 -146 14t-125.5 49.5t-100 91t-64.5 142.5t-24 200v136q0 219 108 354
t305 135q205 0 306.5 -130t101.5 -357v-56zM844 610v13q0 201 -75 304t-243 103q-164 0 -243.5 -109t-79.5 -300v-11h641zM764 1579q0 -8 -8 -16l-219 -263q-1 -2 -4 -5q-19 -25 -31 -28q-5 -1 -10 -1h-46q-18 0 -18 14q0 12 8 20l205 263q23 30 47 30h53q23 0 23 -14z" />
    <glyph glyph-name="ecircumflex" unicode="&#xea;" horiz-adv-x="1046" 
d="M934 567q0 -17 -11.5 -28t-27.5 -11h-692v-43q0 -100 19.5 -175t51.5 -120.5t81 -73.5t100.5 -38t117.5 -10q134 0 304 34q43 9 43 -26v-15q0 -17 -8 -25.5t-31 -12.5q-171 -35 -308 -35q-80 0 -146 14t-125.5 49.5t-100 91t-64.5 142.5t-24 200v136q0 219 108 354
t305 135q205 0 306.5 -130t101.5 -357v-56zM844 610v13q0 201 -75 304t-243 103q-164 0 -243.5 -109t-79.5 -300v-11h641zM823 1280q0 -14 -18 -14h-45q-10 0 -17.5 5t-11.5 9t-16 20l-193 232l-192 -232q-1 -2 -4 -5q-19 -25 -31 -28q-5 -1 -10 -1h-45q-19 0 -19 14
q0 12 8 20l205 263q23 30 47 30h82q24 0 47 -30l205 -263q8 -8 8 -20z" />
    <glyph glyph-name="edieresis" unicode="&#xeb;" horiz-adv-x="1046" 
d="M934 567q0 -17 -11.5 -28t-27.5 -11h-692v-43q0 -100 19.5 -175t51.5 -120.5t81 -73.5t100.5 -38t117.5 -10q134 0 304 34q43 9 43 -26v-15q0 -17 -8 -25.5t-31 -12.5q-171 -35 -308 -35q-80 0 -146 14t-125.5 49.5t-100 91t-64.5 142.5t-24 200v136q0 219 108 354
t305 135q205 0 306.5 -130t101.5 -357v-56zM844 610v13q0 201 -75 304t-243 103q-164 0 -243.5 -109t-79.5 -300v-11h641zM721 1354q0 -17 -11.5 -28t-27.5 -11h-12q-16 0 -27.5 11t-11.5 28v151q0 15 12 27t27 12h12q15 0 27 -12t12 -27v-151zM414 1354q0 -17 -11.5 -28
t-27.5 -11h-13q-15 0 -26.5 11t-11.5 28v151q0 15 11.5 27t26.5 12h13q15 0 27 -12t12 -27v-151z" />
    <glyph glyph-name="igrave" unicode="&#xec;" horiz-adv-x="417" 
d="M254 39q0 -15 -12 -27t-27 -12h-12q-15 0 -27 12t-12 27v1022q0 15 12 27t27 12h12q15 0 27 -12t12 -27v-1022zM330 1280q0 -14 -19 -14h-45q-10 0 -17.5 5t-11.5 9t-16 20l-219 263q-8 8 -8 16q0 14 22 14h54q24 0 47 -30l205 -263q8 -8 8 -20z" />
    <glyph glyph-name="iacute" unicode="&#xed;" horiz-adv-x="417" 
d="M254 39q0 -15 -12 -27t-27 -12h-12q-15 0 -27 12t-12 27v1022q0 15 12 27t27 12h12q15 0 27 -12t12 -27v-1022zM424 1579q0 -8 -8 -16l-219 -263q-1 -2 -4 -5q-19 -25 -31 -28q-5 -1 -10 -1h-46q-18 0 -18 14q0 12 8 20l205 263q23 30 47 30h53q23 0 23 -14z" />
    <glyph glyph-name="icircumflex" unicode="&#xee;" horiz-adv-x="417" 
d="M254 39q0 -15 -12 -27t-27 -12h-12q-15 0 -27 12t-12 27v1022q0 15 12 27t27 12h12q15 0 27 -12t12 -27v-1022zM510 1280q0 -14 -18 -14h-46q-10 0 -17.5 5t-11.5 9t-16 20l-192 232l-193 -232q-1 -2 -4 -5q-19 -25 -31 -28q-5 -1 -10 -1h-45q-18 0 -18 14q0 12 8 20
l205 263q23 30 47 30h82q24 0 47 -30l205 -263q8 -8 8 -20z" />
    <glyph glyph-name="idieresis" unicode="&#xef;" horiz-adv-x="417" 
d="M254 39q0 -15 -12 -27t-27 -12h-12q-15 0 -27 12t-12 27v1022q0 15 12 27t27 12h12q15 0 27 -12t12 -27v-1022zM408 1354q0 -17 -11.5 -28t-27.5 -11h-13q-16 0 -27.5 11t-11.5 28v151q0 15 12 27t27 12h13q15 0 27 -12t12 -27v-151zM100 1354q0 -17 -11.5 -28t-27.5 -11
h-12q-16 0 -27.5 11t-11.5 28v151q0 15 12 27t27 12h12q15 0 27 -12t12 -27v-151z" />
    <glyph glyph-name="eth" unicode="&#xf0;" horiz-adv-x="1069" 
d="M956 477q0 -235 -106.5 -362t-314.5 -127t-315 127t-107 362v144q0 235 107 362t315 127q200 0 307 -119q-31 115 -112 206.5t-230 156.5l-199 -150q-30 -23 -49 0l-10 13q-8 13 -3.5 26t17.5 23l158 123q-96 35 -219 59q-41 8 -31 41l6 20q5 18 18 22t27 -1
q172 -41 279 -82l208 160q29 21 52 -2l12 -13q20 -20 -12 -45l-179 -135q80 -41 141.5 -91t101.5 -95.5t67.5 -110t41.5 -109t21 -119.5t7.5 -114t0.5 -118v-12.5v-11v-11.5v-144zM866 477v144q0 409 -331 409q-332 0 -332 -409v-144q0 -409 332 -409q331 0 331 409z" />
    <glyph glyph-name="ntilde" unicode="&#xf1;" horiz-adv-x="1067" 
d="M924 39q0 -16 -11 -27.5t-28 -11.5h-15q-15 0 -25.5 12t-10.5 27v680q0 164 -75.5 237.5t-201.5 73.5q-149 0 -324 -84v-907q0 -15 -11.5 -27t-26.5 -12h-13q-15 0 -27 12t-12 27v1020q0 18 10 29.5t27 11.5h17q17 0 26.5 -11.5t9.5 -29.5v-33q175 84 330 84
q77 0 140 -21.5t114 -66.5t79 -122t28 -181v-680zM860 1442q0 -92 -42.5 -139.5t-117.5 -47.5q-80 0 -137 54l-98 96q-21 21 -32 30.5t-29 18t-37 8.5q-40 0 -62 -24t-22 -84v-54q0 -18 -4 -25t-17 -7h-35q-13 0 -17.5 7t-4.5 25v54q0 92 43 139t119 47q79 0 135 -53l98 -96
q58 -58 100 -58q40 0 61 24t21 85v53q0 18 4 25.5t17 7.5h35q13 0 17.5 -7.5t4.5 -25.5v-53z" />
    <glyph glyph-name="ograve" unicode="&#xf2;" horiz-adv-x="1069" 
d="M956 477q0 -235 -106.5 -362t-314.5 -127t-315 127t-107 362v144q0 235 107 362t315 127t314.5 -127t106.5 -362v-144zM866 477v144q0 409 -331 409q-332 0 -332 -409v-144q0 -409 332 -409q331 0 331 409zM657 1280q0 -14 -18 -14h-45q-10 0 -17.5 5t-11.5 9t-16 20
l-219 263q-8 8 -8 16q0 14 22 14h53q24 0 47 -30l205 -263q8 -8 8 -20z" />
    <glyph glyph-name="oacute" unicode="&#xf3;" horiz-adv-x="1069" 
d="M956 477q0 -235 -106.5 -362t-314.5 -127t-315 127t-107 362v144q0 235 107 362t315 127t314.5 -127t106.5 -362v-144zM866 477v144q0 409 -331 409q-332 0 -332 -409v-144q0 -409 332 -409q331 0 331 409zM774 1579q0 -8 -8 -16l-219 -263q-1 -2 -4 -5q-19 -25 -31 -28
q-5 -1 -10 -1h-45q-19 0 -19 14q0 12 8 20l205 263q23 30 47 30h54q22 0 22 -14z" />
    <glyph glyph-name="ocircumflex" unicode="&#xf4;" horiz-adv-x="1069" 
d="M956 477q0 -235 -106.5 -362t-314.5 -127t-315 127t-107 362v144q0 235 107 362t315 127t314.5 -127t106.5 -362v-144zM866 477v144q0 409 -331 409q-332 0 -332 -409v-144q0 -409 332 -409q331 0 331 409zM836 1280q0 -14 -19 -14h-45q-10 0 -17.5 5t-11.5 9t-16 20
l-192 232l-193 -232q-1 -2 -4 -5q-19 -25 -31 -28q-5 -1 -10 -1h-45q-19 0 -19 14q0 11 9 20l204 263q23 30 48 30h81q25 0 48 -30l204 -263q9 -9 9 -20z" />
    <glyph glyph-name="otilde" unicode="&#xf5;" horiz-adv-x="1069" 
d="M956 477q0 -235 -106.5 -362t-314.5 -127t-315 127t-107 362v144q0 235 107 362t315 127t314.5 -127t106.5 -362v-144zM866 477v144q0 409 -331 409q-332 0 -332 -409v-144q0 -409 332 -409q331 0 331 409zM862 1440q0 -92 -42.5 -139.5t-117.5 -47.5q-80 0 -137 54
l-98 96q-21 21 -32 30.5t-29 18t-37 8.5q-40 0 -62 -24t-22 -84v-54q0 -18 -4 -25t-17 -7h-35q-13 0 -17.5 7t-4.5 25v54q0 92 43 139t119 47q79 0 135 -53l98 -96q58 -58 100 -58q40 0 61 24t21 85v53q0 18 4 25.5t17 7.5h35q13 0 17.5 -7.5t4.5 -25.5v-53z" />
    <glyph glyph-name="odieresis" unicode="&#xf6;" horiz-adv-x="1069" 
d="M956 477q0 -235 -106.5 -362t-314.5 -127t-315 127t-107 362v144q0 235 107 362t315 127t314.5 -127t106.5 -362v-144zM866 477v144q0 409 -331 409q-332 0 -332 -409v-144q0 -409 332 -409q331 0 331 409zM733 1354q0 -17 -11.5 -28t-27.5 -11h-12q-16 0 -27.5 11
t-11.5 28v151q0 15 12 27t27 12h12q15 0 27 -12t12 -27v-151zM426 1354q0 -17 -11.5 -28t-27.5 -11h-12q-16 0 -27.5 11t-11.5 28v151q0 15 12 27t27 12h12q15 0 27 -12t12 -27v-151z" />
    <glyph glyph-name="divide" unicode="&#xf7;" 
d="M639 1047q0 -17 -11.5 -28t-27.5 -11h-12q-16 0 -27.5 11t-11.5 28v151q0 15 12 27t27 12h12q15 0 27 -12t12 -27v-151zM1010 791q0 -33 -41 -33h-748q-41 0 -41 33v20q0 33 41 33h748q41 0 41 -33v-20zM639 403q0 -17 -11.5 -27.5t-27.5 -10.5h-12q-16 0 -27.5 10.5
t-11.5 27.5v152q0 15 12 27t27 12h12q15 0 27 -12t12 -27v-152z" />
    <glyph glyph-name="oslash" unicode="&#xf8;" horiz-adv-x="1069" 
d="M1018 1147q0 -15 -8 -23l-133 -178q79 -122 79 -325v-144q0 -235 -106.5 -362t-314.5 -127q-185 0 -291 100l-103 -139q-16 -21 -32 -21h-41q-17 0 -17 17q0 11 8 22l136 183q-82 127 -82 327v144q0 235 107 362t315 127q185 0 292 -104l101 137q16 20 33 20h40
q17 0 17 -16zM776 938q-83 92 -241 92q-332 0 -332 -409v-144q0 -158 47 -252zM866 477v144q0 151 -45 247l-526 -710q84 -90 240 -90q331 0 331 409z" />
    <glyph glyph-name="ugrave" unicode="&#xf9;" horiz-adv-x="1067" 
d="M143 1061q0 16 11 27.5t28 11.5h15q15 0 25.5 -12t10.5 -27v-680q0 -164 75.5 -237.5t201.5 -73.5q142 0 324 84v907q0 15 11.5 27t26.5 12h13q15 0 27 -12t12 -27v-1020q0 -18 -10 -29.5t-27 -11.5h-17q-17 0 -26.5 11.5t-9.5 29.5v33q-175 -84 -330 -84
q-160 0 -260.5 95.5t-100.5 295.5v680zM625 1280q0 -14 -19 -14h-45q-10 0 -17.5 5t-11.5 9t-16 20l-219 263q-8 8 -8 16q0 14 22 14h54q24 0 47 -30l204 -263q9 -9 9 -20z" />
    <glyph glyph-name="uacute" unicode="&#xfa;" horiz-adv-x="1067" 
d="M143 1061q0 16 11 27.5t28 11.5h15q15 0 25.5 -12t10.5 -27v-680q0 -164 75.5 -237.5t201.5 -73.5q142 0 324 84v907q0 15 11.5 27t26.5 12h13q15 0 27 -12t12 -27v-1020q0 -18 -10 -29.5t-27 -11.5h-17q-17 0 -26.5 11.5t-9.5 29.5v33q-175 -84 -330 -84
q-160 0 -260.5 95.5t-100.5 295.5v680zM788 1579q0 -8 -8 -16l-219 -263q-1 -2 -4 -5q-19 -25 -31 -28q-5 -1 -10 -1h-45q-18 0 -18 14q0 12 8 20l205 263q23 30 47 30h53q22 0 22 -14z" />
    <glyph glyph-name="ucircumflex" unicode="&#xfb;" horiz-adv-x="1067" 
d="M143 1061q0 16 11 27.5t28 11.5h15q15 0 25.5 -12t10.5 -27v-680q0 -164 75.5 -237.5t201.5 -73.5q142 0 324 84v907q0 15 11.5 27t26.5 12h13q15 0 27 -12t12 -27v-1020q0 -18 -10 -29.5t-27 -11.5h-17q-17 0 -26.5 11.5t-9.5 29.5v33q-175 -84 -330 -84
q-160 0 -260.5 95.5t-100.5 295.5v680zM834 1280q0 -14 -19 -14h-45q-10 0 -17.5 5t-11.5 9t-16 20l-193 232l-192 -232q-1 -2 -4 -5q-19 -25 -31 -28q-5 -1 -10 -1h-45q-19 0 -19 14q0 11 9 20l204 263q23 30 48 30h81q25 0 48 -30l204 -263q9 -9 9 -20z" />
    <glyph glyph-name="udieresis" unicode="&#xfc;" horiz-adv-x="1067" 
d="M143 1061q0 16 11 27.5t28 11.5h15q15 0 25.5 -12t10.5 -27v-680q0 -164 75.5 -237.5t201.5 -73.5q142 0 324 84v907q0 15 11.5 27t26.5 12h13q15 0 27 -12t12 -27v-1020q0 -18 -10 -29.5t-27 -11.5h-17q-17 0 -26.5 11.5t-9.5 29.5v33q-175 -84 -330 -84
q-160 0 -260.5 95.5t-100.5 295.5v680zM731 1354q0 -17 -11.5 -28t-27.5 -11h-12q-16 0 -27.5 11t-11.5 28v151q0 15 12 27t27 12h12q15 0 27 -12t12 -27v-151zM424 1354q0 -17 -11.5 -28t-27.5 -11h-12q-16 0 -27.5 11t-11.5 28v151q0 15 12 27t27 12h12q15 0 27 -12
t12 -27v-151z" />
    <glyph glyph-name="yacute" unicode="&#xfd;" horiz-adv-x="995" 
d="M913 1049l-335 -1164q-47 -164 -118 -224t-214 -60q-53 0 -127 12q-21 3 -31 9t-10 20v22q0 19 9.5 25.5t33.5 3.5q93 -12 133 -12q110 0 158.5 44.5t85.5 178.5l26 96h-28q-50 0 -77 22.5t-48 92.5l-277 936q-6 22 1.5 35.5t31.5 13.5h18q25 0 33 -29l277 -942
q8 -29 19.5 -37t27.5 -8h47l280 989q8 27 37 27h19q43 0 28 -51zM756 1579q0 -8 -8 -16l-220 -263q-1 -2 -4 -5q-19 -25 -31 -28q-5 -1 -10 -1h-45q-18 0 -18 14q0 12 8 20l205 263q23 30 47 30h53q23 0 23 -14z" />
    <glyph glyph-name="thorn" unicode="&#xfe;" horiz-adv-x="1032" 
d="M920 477q0 -243 -101 -366t-301 -123q-148 0 -285 30v-378q0 -16 -9.5 -27.5t-24.5 -11.5h-21q-15 0 -25 12t-10 27v1843q0 15 10 27t25 12h21q15 0 24.5 -11.5t9.5 -27.5v-400q166 27 285 27q204 0 303 -133t99 -365v-135zM829 477v135q0 207 -72.5 312.5t-238.5 105.5
q-125 0 -285 -26v-910q127 -26 285 -26q165 0 238 100.5t73 308.5z" />
    <glyph glyph-name="ydieresis" unicode="&#xff;" horiz-adv-x="995" 
d="M913 1049l-335 -1164q-47 -164 -118 -224t-214 -60q-53 0 -127 12q-21 3 -31 9t-10 20v22q0 19 9.5 25.5t33.5 3.5q93 -12 133 -12q110 0 158.5 44.5t85.5 178.5l26 96h-28q-50 0 -77 22.5t-48 92.5l-277 936q-6 22 1.5 35.5t31.5 13.5h18q25 0 33 -29l277 -942
q8 -29 19.5 -37t27.5 -8h47l280 989q8 27 37 27h19q43 0 28 -51zM696 1368q0 -17 -11.5 -28t-27.5 -11h-12q-16 0 -27.5 11t-11.5 28v152q0 15 12 27t27 12h12q15 0 27 -12t12 -27v-152zM389 1368q0 -17 -11.5 -28t-27.5 -11h-12q-16 0 -27.5 11t-11.5 28v152q0 15 12 27
t27 12h12q15 0 27 -12t12 -27v-152z" />
    <glyph glyph-name="Amacron" unicode="&#x100;" horiz-adv-x="1267" 
d="M1186 45q6 -23 -1 -37t-28 -14h-24q-12 0 -21 7.5t-12 18.5l-172 555h-590l-168 -555q-3 -10 -13 -18t-20 -8h-26q-20 0 -27.5 14.5t-1.5 36.5l420 1387q14 47 48.5 73.5t84.5 26.5q49 0 83 -26t48 -72zM905 666l-223 743q-12 41 -47 41q-37 0 -47 -39l-226 -745h543z
M942 1753q0 -33 -41 -33h-545q-41 0 -41 33v23q0 30 41 30h545q41 0 41 -30v-23z" />
    <glyph glyph-name="amacron" unicode="&#x101;" horiz-adv-x="999" 
d="M856 41q0 -17 -12 -29t-29 -12h-10q-17 0 -29 12t-12 29v51q-189 -104 -348 -104q-49 0 -92 9.5t-84.5 33t-71.5 60t-48 94.5t-18 132v27q0 108 48.5 176t160.5 103.5t297 35.5h158v74q0 163 -55.5 230t-202.5 67q-118 0 -291 -18q-18 -2 -32.5 5t-14.5 25v13q0 31 47 37
q155 18 291 18q101 0 170.5 -27t107.5 -79.5t54 -117.5t16 -153v-692zM766 172v408h-158q-231 0 -323 -52.5t-92 -183.5v-27q0 -249 223 -249q86 0 166.5 24t183.5 80zM813 1438q0 -33 -41 -33h-545q-41 0 -41 33v22q0 31 41 31h545q41 0 41 -31v-22z" />
    <glyph glyph-name="Abreve" unicode="&#x102;" horiz-adv-x="1267" 
d="M1186 45q6 -23 -1 -37t-28 -14h-24q-12 0 -21 7.5t-12 18.5l-172 555h-590l-168 -555q-3 -10 -13 -18t-20 -8h-26q-20 0 -27.5 14.5t-1.5 36.5l420 1387q14 47 48.5 73.5t84.5 26.5q49 0 83 -26t48 -72zM905 666l-223 743q-12 41 -47 41q-37 0 -47 -39l-226 -745h543z
M629 1624q132 0 211.5 81t79.5 226q0 21 -21 21h-45q-16 0 -16 -21q0 -65 -18 -111.5t-49.5 -70.5t-66 -34.5t-75.5 -10.5t-75.5 10.5t-66 34.5t-49.5 70.5t-18 111.5q0 21 -17 21h-45q-20 0 -20 -21q0 -145 79.5 -226t211.5 -81z" />
    <glyph glyph-name="abreve" unicode="&#x103;" horiz-adv-x="999" 
d="M856 41q0 -17 -12 -29t-29 -12h-10q-17 0 -29 12t-12 29v51q-189 -104 -348 -104q-49 0 -92 9.5t-84.5 33t-71.5 60t-48 94.5t-18 132v27q0 108 48.5 176t160.5 103.5t297 35.5h158v74q0 163 -55.5 230t-202.5 67q-118 0 -291 -18q-18 -2 -32.5 5t-14.5 25v13q0 31 47 37
q155 18 291 18q101 0 170.5 -27t107.5 -79.5t54 -117.5t16 -153v-692zM766 172v408h-158q-231 0 -323 -52.5t-92 -183.5v-27q0 -249 223 -249q86 0 166.5 24t183.5 80zM500 1266q132 0 211.5 81t79.5 226q0 20 -21 20h-45q-10 0 -13 -4.5t-3 -15.5q0 -65 -18 -111.5
t-49.5 -70.5t-66 -34.5t-75.5 -10.5t-75.5 10.5t-66 34.5t-49.5 70.5t-18 111.5q0 20 -17 20h-45q-20 0 -20 -20q0 -145 79.5 -226t211.5 -81z" />
    <glyph glyph-name="Aogonek" unicode="&#x104;" horiz-adv-x="1267" 
d="M1176 4l-107 -53q-110 -55 -151 -89.5t-41 -86.5q0 -49 33 -70.5t102 -21.5q63 0 153 24q4 2 15 2q14 0 14 -12v-39q0 -17 -23 -23q-87 -28 -161 -28q-56 0 -97.5 11.5t-64 28t-35.5 40.5t-16.5 44t-3.5 44q0 42 14.5 74.5t46 58.5t61.5 43.5t82 42.5l99 47l-168 541
h-590l-168 -555q-3 -10 -13 -18.5t-20 -8.5h-26q-14 0 -22.5 9.5t-8.5 23.5q0 12 2 18l420 1387q14 47 48.5 73.5t84.5 26.5q49 0 83 -26t48 -72l420 -1389q4 -16 4 -22q0 -17 -14 -25zM905 672l-223 743q-12 41 -47 41q-37 0 -47 -39l-226 -745h543z" />
    <glyph glyph-name="aogonek" unicode="&#x105;" horiz-adv-x="999" 
d="M764 51v41q-189 -104 -348 -104q-49 0 -92 9.5t-84.5 33t-71.5 60t-48 94.5t-18 132v27q0 108 48.5 176t160.5 103.5t297 35.5h158v74q0 163 -55.5 230t-202.5 67q-118 0 -291 -18h-8q-39 0 -39 30v13q0 31 47 37q155 18 291 18q101 0 170.5 -27t107.5 -79.5t54 -117.5
t16 -153v-680q0 -20 -7 -30.5t-28 -22.5l-110 -63q-55 -31 -80 -47t-46.5 -35.5t-27.5 -38t-6 -45.5q0 -95 117 -95q46 0 155 25q12 4 19 4q8 0 8 -14v-39q0 -17 -23 -23q-88 -28 -161 -28q-199 0 -199 170q0 41 9.5 70t37 54.5t49.5 40t76 44.5zM766 172v408h-158
q-231 0 -323 -52.5t-92 -183.5v-27q0 -249 223 -249q86 0 166.5 24t183.5 80z" />
    <glyph glyph-name="Cacute" unicode="&#x106;" horiz-adv-x="1099" 
d="M1018 43q0 -14 -12 -23.5t-27 -11.5q-177 -20 -354 -20q-81 0 -151 19t-136 65t-112.5 117t-74.5 182.5t-28 253.5v270q0 142 28 253.5t74.5 182.5t112.5 117t136 65t151 19q169 0 354 -21q15 -2 27 -11t12 -23v-25q0 -17 -9.5 -22t-29.5 -3q-176 19 -354 19
q-89 0 -161.5 -30t-130 -93.5t-89 -172t-31.5 -255.5v-270q0 -147 31.5 -255.5t89 -172t130 -93.5t161.5 -30q187 0 354 18q20 2 29.5 -2.5t9.5 -21.5v-25zM860 1937q0 -8 -8 -16l-219 -262q-2 -2 -5.5 -7t-5 -7t-4.5 -5.5t-4.5 -4.5t-4.5 -3.5t-4.5 -3.5t-4.5 -2t-6 -1.5
t-6 -0.5h-45q-19 0 -19 14q0 13 8 21l205 262q14 18 23.5 24.5t23.5 6.5h54q22 0 22 -15z" />
    <glyph glyph-name="cacute" unicode="&#x107;" horiz-adv-x="894" 
d="M805 43q0 -18 -8 -26t-31 -11q-155 -18 -248 -18q-106 0 -186 39t-127 108.5t-69.5 156.5t-22.5 191v138q0 105 22.5 191.5t69.5 154.5t126.5 105.5t186.5 37.5q93 0 248 -18q23 -3 31 -11t8 -26v-15q0 -35 -43 -28q-144 18 -244 18q-167 0 -241 -106t-74 -303v-138
q0 -415 315 -415q100 0 244 18q19 3 31 -4.5t12 -24.5v-14zM733 1579q0 -8 -8 -16l-219 -263q-1 -2 -4 -5q-19 -25 -31 -28q-5 -1 -10 -1h-45q-19 0 -19 14q0 11 9 20l204 263q23 30 47 30h54q22 0 22 -14z" />
    <glyph glyph-name="Ccircumflex" unicode="&#x108;" horiz-adv-x="1099" 
d="M1018 43q0 -14 -12 -23.5t-27 -11.5q-177 -20 -354 -20q-81 0 -151 19t-136 65t-112.5 117t-74.5 182.5t-28 253.5v270q0 142 28 253.5t74.5 182.5t112.5 117t136 65t151 19q169 0 354 -21q15 -2 27 -11t12 -23v-25q0 -17 -9.5 -22t-29.5 -3q-176 19 -354 19
q-89 0 -161.5 -30t-130 -93.5t-89 -172t-31.5 -255.5v-270q0 -147 31.5 -255.5t89 -172t130 -93.5t161.5 -30q187 0 354 18q20 2 29.5 -2.5t9.5 -21.5v-25zM893 1640q0 -14 -19 -14h-45q-3 0 -6 0.5t-6 1.5t-4.5 2t-4.5 3.5t-4.5 3.5t-4.5 4.5t-4.5 5.5t-5 7t-5.5 7
l-192 231l-193 -231q-2 -2 -5.5 -7t-5 -7t-4.5 -5.5t-4.5 -4.5t-4.5 -3.5t-4.5 -3.5t-4.5 -2t-6 -1.5t-6 -0.5h-45q-18 0 -18 14q0 13 8 21l205 262q14 18 23.5 24.5t23.5 6.5h82q14 0 23.5 -6.5t23.5 -24.5l205 -262q8 -8 8 -21z" />
    <glyph glyph-name="ccircumflex" unicode="&#x109;" horiz-adv-x="894" 
d="M805 43q0 -18 -8 -26t-31 -11q-155 -18 -248 -18q-106 0 -186 39t-127 108.5t-69.5 156.5t-22.5 191v138q0 105 22.5 191.5t69.5 154.5t126.5 105.5t186.5 37.5q93 0 248 -18q23 -3 31 -11t8 -26v-15q0 -35 -43 -28q-144 18 -244 18q-167 0 -241 -106t-74 -303v-138
q0 -415 315 -415q100 0 244 18q19 3 31 -4.5t12 -24.5v-14zM786 1280q0 -14 -18 -14h-45q-10 0 -17.5 5t-11.5 9t-16 20l-193 232l-192 -232q-1 -2 -4 -5q-19 -25 -31 -28q-5 -1 -10 -1h-45q-19 0 -19 14q0 11 9 20l204 263q23 30 47 30h82q24 0 47 -30l205 -263q8 -8 8 -20
z" />
    <glyph glyph-name="Cdotaccent" unicode="&#x10a;" horiz-adv-x="1099" 
d="M1018 43q0 -14 -12 -23.5t-27 -11.5q-177 -20 -354 -20q-81 0 -151 19t-136 65t-112.5 117t-74.5 182.5t-28 253.5v270q0 142 28 253.5t74.5 182.5t112.5 117t136 65t151 19q169 0 354 -21q15 -2 27 -11t12 -23v-25q0 -17 -9.5 -22t-29.5 -3q-176 19 -354 19
q-89 0 -161.5 -30t-130 -93.5t-89 -172t-31.5 -255.5v-270q0 -147 31.5 -255.5t89 -172t130 -93.5t161.5 -30q187 0 354 18q20 2 29.5 -2.5t9.5 -21.5v-25zM670 1706q0 -17 -11.5 -28t-27.5 -11h-13q-15 0 -26.5 11t-11.5 28v152q0 15 11.5 26.5t26.5 11.5h13q15 0 27 -11.5
t12 -26.5v-152z" />
    <glyph glyph-name="cdotaccent" unicode="&#x10b;" horiz-adv-x="894" 
d="M805 43q0 -18 -8 -26t-31 -11q-155 -18 -248 -18q-106 0 -186 39t-127 108.5t-69.5 156.5t-22.5 191v138q0 105 22.5 191.5t69.5 154.5t126.5 105.5t186.5 37.5q93 0 248 -18q23 -3 31 -11t8 -26v-15q0 -35 -43 -28q-144 18 -244 18q-167 0 -241 -106t-74 -303v-138
q0 -415 315 -415q100 0 244 18q19 3 31 -4.5t12 -24.5v-14zM561 1352q0 -17 -11.5 -28t-27.5 -11h-12q-16 0 -27.5 11t-11.5 28v151q0 15 12 27t27 12h12q15 0 27 -12t12 -27v-151z" />
    <glyph glyph-name="Ccaron" unicode="&#x10c;" horiz-adv-x="1099" 
d="M1018 43q0 -14 -12 -23.5t-27 -11.5q-177 -20 -354 -20q-81 0 -151 19t-136 65t-112.5 117t-74.5 182.5t-28 253.5v270q0 142 28 253.5t74.5 182.5t112.5 117t136 65t151 19q169 0 354 -21q15 -2 27 -11t12 -23v-25q0 -17 -9.5 -22t-29.5 -3q-176 19 -354 19
q-89 0 -161.5 -30t-130 -93.5t-89 -172t-31.5 -255.5v-270q0 -147 31.5 -255.5t89 -172t130 -93.5t161.5 -30q187 0 354 18q20 2 29.5 -2.5t9.5 -21.5v-25zM922 1937q0 -11 -9 -20l-204 -262q-14 -18 -23.5 -24.5t-23.5 -6.5h-82q-24 0 -48 31l-204 262q-9 9 -9 20
q0 15 19 15h45q3 0 6 -0.5t6 -1.5t4.5 -2t4.5 -3.5t4.5 -3.5t4.5 -4.5t4.5 -5.5t5 -7t5.5 -7l193 -231l192 231q2 2 5.5 7t5 7t4.5 5.5t4.5 4.5t4.5 3.5t4.5 3.5t4.5 2t6 1.5t6 0.5h45q19 0 19 -15z" />
    <glyph glyph-name="ccaron" unicode="&#x10d;" horiz-adv-x="894" 
d="M805 43q0 -18 -8 -26t-31 -11q-155 -18 -248 -18q-106 0 -186 39t-127 108.5t-69.5 156.5t-22.5 191v138q0 105 22.5 191.5t69.5 154.5t126.5 105.5t186.5 37.5q93 0 248 -18q23 -3 31 -11t8 -26v-15q0 -35 -43 -28q-144 18 -244 18q-167 0 -241 -106t-74 -303v-138
q0 -415 315 -415q100 0 244 18q19 3 31 -4.5t12 -24.5v-14zM795 1579q0 -11 -9 -20l-204 -263q-23 -30 -47 -30h-82q-24 0 -47 30l-205 263q-8 8 -8 20q0 14 18 14h45q10 0 17.5 -5t11.5 -9t16 -20l193 -232l192 232q1 2 4 5q19 25 31 28q5 1 10 1h45q19 0 19 -14z" />
    <glyph glyph-name="Dcaron" unicode="&#x10e;" horiz-adv-x="1255" 
d="M1133 633q0 -138 -29 -247.5t-81 -183.5t-127.5 -122.5t-164.5 -70t-196 -21.5q-242 0 -336 16q-14 3 -24.5 14.5t-10.5 24.5v1434q0 13 10.5 24.5t24.5 14.5q94 16 336 16q598 0 598 -645v-254zM1042 633v254q0 128 -25.5 226t-70 161.5t-109.5 104t-138.5 57
t-163.5 16.5q-101 0 -281 -12v-1364q120 -8 281 -8q507 0 507 565zM930 1937q0 -12 -8 -20l-205 -262q-14 -18 -23.5 -24.5t-23.5 -6.5h-82q-14 0 -23.5 6.5t-23.5 24.5l-205 262q-8 8 -8 20q0 15 18 15h45q3 0 6 -0.5t6 -1.5t4.5 -2t4.5 -3.5t4.5 -3.5t4.5 -4.5t4.5 -5.5
t5 -7t5.5 -7l193 -231l192 231q2 2 5.5 7t5 7t4.5 5.5t4.5 4.5t4.5 3.5t4.5 3.5t4.5 2t6 1.5t6 0.5h45q19 0 19 -15z" />
    <glyph glyph-name="dcaron" unicode="&#x10f;" horiz-adv-x="1261" 
d="M889 66q0 -19 -6 -27t-25 -12q-195 -39 -344 -39q-204 0 -302.5 132.5t-98.5 364.5v136q0 489 401 489q144 0 285 -31v404q0 15 10 27t25 12h20q15 0 25 -12t10 -27v-1417zM799 94v910q-127 26 -285 26q-165 0 -238 -100.5t-73 -308.5v-136q0 -207 72.5 -312t238.5 -105
q125 0 285 26zM1071 1092q-20 0 -20 20q0 6 4 18l125 353q14 39 41 39h39q14 0 20.5 -8.5t-0.5 -30.5l-139 -353q-8 -22 -16 -30t-23 -8h-31z" />
    <glyph glyph-name="Dcroat" unicode="&#x110;" horiz-adv-x="1255" 
d="M1133 633q0 -138 -29 -247.5t-81 -183.5t-127.5 -122.5t-164.5 -70t-196 -21.5q-242 0 -336 16q-14 3 -24.5 14.5t-10.5 24.5v711h-146q-17 0 -27.5 9.5t-10.5 24.5v21q0 15 10.5 24t27.5 9h146v635q0 13 10.5 24.5t24.5 14.5q94 16 336 16q598 0 598 -645v-254z
M1042 633v254q0 128 -25.5 226t-70 161.5t-109.5 104t-138.5 57t-163.5 16.5q-101 0 -281 -12v-598h174q17 0 28 -9t11 -24v-21q0 -15 -11 -24.5t-28 -9.5h-174v-678q120 -8 281 -8q507 0 507 565z" />
    <glyph glyph-name="dcroat" unicode="&#x111;" horiz-adv-x="1032" 
d="M889 66q0 -19 -6 -27t-25 -12q-195 -39 -344 -39q-204 0 -302.5 132.5t-98.5 364.5v136q0 489 401 489q144 0 285 -31v187h-326q-39 0 -39 30v21q0 31 39 31h326v135q0 15 10 27t25 12h20q15 0 25 -12t10 -27v-135h117q38 0 38 -31v-21q0 -30 -38 -30h-117v-1200zM799 94
v910q-127 26 -285 26q-165 0 -238 -100.5t-73 -308.5v-136q0 -207 72.5 -312t238.5 -105q125 0 285 26z" />
    <glyph glyph-name="Emacron" unicode="&#x112;" horiz-adv-x="1091" 
d="M979 35q0 -15 -11 -25t-28 -10h-528q-123 0 -185.5 52.5t-62.5 176.5v1063q0 124 62.5 177t185.5 53h528q17 0 28 -10t11 -25v-17q0 -15 -10.5 -23.5t-28.5 -8.5h-528q-82 0 -120 -28.5t-38 -117.5v-450h686q17 0 28 -9t11 -24v-21q0 -15 -11 -24.5t-28 -9.5h-686v-525
q0 -89 38 -117t120 -28h528q17 0 28 -9t11 -24v-16zM895 1753q0 -33 -41 -33h-545q-41 0 -41 33v23q0 30 41 30h545q41 0 41 -30v-23z" />
    <glyph glyph-name="emacron" unicode="&#x113;" horiz-adv-x="1046" 
d="M934 567q0 -17 -11.5 -28t-27.5 -11h-692v-43q0 -100 19.5 -175t51.5 -120.5t81 -73.5t100.5 -38t117.5 -10q134 0 304 34q43 9 43 -26v-15q0 -17 -8 -25.5t-31 -12.5q-171 -35 -308 -35q-80 0 -146 14t-125.5 49.5t-100 91t-64.5 142.5t-24 200v136q0 219 108 354
t305 135q205 0 306.5 -130t101.5 -357v-56zM844 610v13q0 201 -75 304t-243 103q-164 0 -243.5 -109t-79.5 -300v-11h641zM846 1436q0 -33 -41 -33h-545q-41 0 -41 33v22q0 31 41 31h545q41 0 41 -31v-22z" />
    <glyph glyph-name="Ebreve" unicode="&#x114;" horiz-adv-x="1091" 
d="M979 35q0 -15 -11 -25t-28 -10h-528q-123 0 -185.5 52.5t-62.5 176.5v1063q0 124 62.5 177t185.5 53h528q17 0 28 -10t11 -25v-17q0 -15 -10.5 -23.5t-28.5 -8.5h-528q-82 0 -120 -28.5t-38 -117.5v-450h686q17 0 28 -9t11 -24v-21q0 -15 -11 -24.5t-28 -9.5h-686v-525
q0 -89 38 -117t120 -28h528q17 0 28 -9t11 -24v-16zM606 1628q132 0 211.5 81t79.5 226q0 21 -20 21h-46q-16 0 -16 -21q0 -65 -18 -111.5t-49.5 -70.5t-66 -34.5t-75.5 -10.5t-75.5 10.5t-66 34.5t-49.5 70.5t-18 111.5q0 21 -16 21h-45q-21 0 -21 -21q0 -145 79.5 -226
t211.5 -81z" />
    <glyph glyph-name="ebreve" unicode="&#x115;" horiz-adv-x="1046" 
d="M934 567q0 -17 -11.5 -28t-27.5 -11h-692v-43q0 -100 19.5 -175t51.5 -120.5t81 -73.5t100.5 -38t117.5 -10q134 0 304 34q43 9 43 -26v-15q0 -17 -8 -25.5t-31 -12.5q-171 -35 -308 -35q-80 0 -146 14t-125.5 49.5t-100 91t-64.5 142.5t-24 200v136q0 219 108 354
t305 135q205 0 306.5 -130t101.5 -357v-56zM844 610v13q0 201 -75 304t-243 103q-164 0 -243.5 -109t-79.5 -300v-11h641zM530 1266q132 0 211.5 81t79.5 226q0 20 -20 20h-45q-17 0 -17 -20q0 -65 -18 -111.5t-49.5 -70.5t-66 -34.5t-75.5 -10.5t-75.5 10.5t-65.5 34.5
t-49 70.5t-18 111.5q0 20 -17 20h-45q-20 0 -20 -20q0 -145 79 -226t211 -81z" />
    <glyph glyph-name="Edotaccent" unicode="&#x116;" horiz-adv-x="1091" 
d="M979 35q0 -15 -11 -25t-28 -10h-528q-123 0 -185.5 52.5t-62.5 176.5v1063q0 124 62.5 177t185.5 53h528q17 0 28 -10t11 -25v-17q0 -15 -10.5 -23.5t-28.5 -8.5h-528q-82 0 -120 -28.5t-38 -117.5v-450h686q17 0 28 -9t11 -24v-21q0 -15 -11 -24.5t-28 -9.5h-686v-525
q0 -89 38 -117t120 -28h528q17 0 28 -9t11 -24v-16zM618 1706q0 -17 -11.5 -28t-26.5 -11h-13q-16 0 -27.5 11t-11.5 28v152q0 15 12 26.5t27 11.5h13q15 0 26.5 -11.5t11.5 -26.5v-152z" />
    <glyph glyph-name="edotaccent" unicode="&#x117;" horiz-adv-x="1046" 
d="M934 567q0 -17 -11.5 -28t-27.5 -11h-692v-43q0 -100 19.5 -175t51.5 -120.5t81 -73.5t100.5 -38t117.5 -10q134 0 304 34q43 9 43 -26v-15q0 -17 -8 -25.5t-31 -12.5q-171 -35 -308 -35q-80 0 -146 14t-125.5 49.5t-100 91t-64.5 142.5t-24 200v136q0 219 108 354
t305 135q205 0 306.5 -130t101.5 -357v-56zM844 610v13q0 201 -75 304t-243 103q-164 0 -243.5 -109t-79.5 -300v-11h641zM569 1352q0 -17 -11.5 -28t-27.5 -11h-12q-16 0 -27.5 11t-11.5 28v151q0 15 12 27t27 12h12q15 0 27 -12t12 -27v-151z" />
    <glyph glyph-name="Eogonek" unicode="&#x118;" horiz-adv-x="1091" 
d="M979 35q0 -15 -11 -25t-28 -10h-47l-113 -63q-100 -57 -129.5 -84t-29.5 -70q0 -107 178 -107q46 0 155 25q12 4 17 4q10 0 10 -14v-39q0 -17 -23 -23q-88 -28 -161 -28q-61 0 -108.5 11.5t-75.5 29t-45.5 42t-24 48t-6.5 49.5q0 37 9.5 64t37 51.5t50 39t75.5 44.5
l34 20h-331q-123 0 -185.5 52.5t-62.5 176.5v1063q0 124 62.5 177t185.5 53h528q17 0 28 -10t11 -25v-17q0 -15 -10.5 -23.5t-28.5 -8.5h-528q-82 0 -120 -28.5t-38 -117.5v-450h686q17 0 28 -9t11 -24v-21q0 -15 -11 -24.5t-28 -9.5h-686v-525q0 -89 38 -117t120 -28h528
q17 0 28 -9t11 -24v-16z" />
    <glyph glyph-name="eogonek" unicode="&#x119;" horiz-adv-x="1046" 
d="M905 33l-168 -94q-99 -56 -130.5 -85.5t-31.5 -72.5q0 -56 45 -81.5t117 -25.5q53 0 156 25q13 4 20 2t7 -16v-29q0 -12 -4.5 -17t-18.5 -10q-94 -28 -162 -28q-67 0 -116 16t-74.5 43t-37 57t-11.5 64q0 66 39 105t137 94l26 14q-64 -6 -125 -6q-80 0 -146 14
t-125.5 49.5t-100 91t-64.5 142.5t-24 200v136q0 219 108 354t305 135q205 0 306.5 -130t101.5 -357v-56q0 -17 -11.5 -28t-27.5 -11h-692v-43q0 -101 18.5 -175.5t50.5 -120t80.5 -73.5t100.5 -38t120 -10q134 0 304 34q25 5 34 -0.5t9 -29.5v-6q0 -26 -15 -33zM844 610v13
q0 201 -75 304t-243 103q-164 0 -243.5 -109t-79.5 -300v-11h641z" />
    <glyph glyph-name="Ecaron" unicode="&#x11a;" horiz-adv-x="1091" 
d="M979 35q0 -15 -11 -25t-28 -10h-528q-123 0 -185.5 52.5t-62.5 176.5v1063q0 124 62.5 177t185.5 53h528q17 0 28 -10t11 -25v-17q0 -15 -10.5 -23.5t-28.5 -8.5h-528q-82 0 -120 -28.5t-38 -117.5v-450h686q17 0 28 -9t11 -24v-21q0 -15 -11 -24.5t-28 -9.5h-686v-525
q0 -89 38 -117t120 -28h528q17 0 28 -9t11 -24v-16zM897 1939q0 -12 -8 -20l-205 -262q-14 -18 -23.5 -24.5t-23.5 -6.5h-82q-14 0 -23.5 6.5t-23.5 24.5l-205 262q-8 8 -8 20q0 15 18 15h45q3 0 6 -0.5t6 -1.5t4.5 -2t4.5 -3.5t4.5 -3.5t4.5 -4.5t4.5 -5.5t5 -7t5.5 -7
l193 -231l192 231q12 16 16 20.5t12 9.5t18 5h45q18 0 18 -15z" />
    <glyph glyph-name="ecaron" unicode="&#x11b;" horiz-adv-x="1046" 
d="M934 567q0 -17 -11.5 -28t-27.5 -11h-692v-43q0 -100 19.5 -175t51.5 -120.5t81 -73.5t100.5 -38t117.5 -10q134 0 304 34q43 9 43 -26v-15q0 -17 -8 -25.5t-31 -12.5q-171 -35 -308 -35q-80 0 -146 14t-125.5 49.5t-100 91t-64.5 142.5t-24 200v136q0 219 108 354
t305 135q205 0 306.5 -130t101.5 -357v-56zM844 610v13q0 201 -75 304t-243 103q-164 0 -243.5 -109t-79.5 -300v-11h641zM825 1579q0 -12 -8 -20l-205 -263q-23 -30 -47 -30h-82q-24 0 -47 30l-205 263q-8 8 -8 20q0 14 19 14h45q10 0 17.5 -5t11.5 -9t16 -20l192 -232
l193 232q1 2 4 5q19 25 31 28q5 1 10 1h45q18 0 18 -14z" />
    <glyph glyph-name="Gcircumflex" unicode="&#x11c;" horiz-adv-x="1204" 
d="M1040 1458q0 -20 -10 -27t-33 -4q-217 21 -360 21q-66 0 -123.5 -15t-114 -54.5t-96.5 -101t-65 -161.5t-25 -229v-254q0 -282 111.5 -420.5t312.5 -138.5q163 0 311 18v651q0 17 10 28t25 11h21q15 0 24.5 -11t9.5 -28v-690q0 -15 -10 -26t-24 -13q-212 -26 -367 -26
q-112 0 -203.5 38t-162 114t-109.5 202t-39 291v254q0 148 31 263t80.5 185.5t118.5 116t138 63t146 17.5q184 0 369 -21q34 -4 34 -32v-21zM934 1640q0 -14 -19 -14h-45q-3 0 -6 0.5t-6 1.5t-4.5 2t-4.5 3.5t-4.5 3.5t-4.5 4.5t-4.5 5.5t-5 7t-5.5 7l-192 231l-193 -231
q-2 -2 -5.5 -7t-5 -7t-4.5 -5.5t-4.5 -4.5t-4.5 -3.5t-4.5 -3.5t-4.5 -2t-6 -1.5t-6 -0.5h-45q-18 0 -18 14q0 13 8 21l205 262q14 18 23.5 24.5t23.5 6.5h82q14 0 23.5 -6.5t23.5 -24.5l205 -262q8 -8 8 -21z" />
    <glyph glyph-name="gcircumflex" unicode="&#x11d;" horiz-adv-x="1093" 
d="M1001 1044q0 -32 -38 -32h-107q113 -91 113 -254v-17q0 -76 -21.5 -134.5t-69.5 -104.5t-131.5 -70t-201.5 -24q-135 0 -250 47q-70 -29 -70 -88q0 -49 60 -64l368 -96q179 -46 253.5 -103t74.5 -174v-18q0 -318 -434 -318q-225 0 -329.5 85t-104.5 233v18q0 99 47 179.5
t106 115.5l-14 4q-55 17 -82 53.5t-27 84.5q0 39 22 75.5t64 55.5q-106 86 -106 243v17q0 52 10 97t38.5 91.5t73.5 79t122 53.5t178 21h418q16 0 27 -9t11 -24v-23zM881 741v17q0 59 -15.5 104t-52 82.5t-104 57.5t-164.5 20q-82 0 -143 -15.5t-96.5 -39.5t-57 -60
t-28.5 -71t-7 -78v-17q0 -28 5.5 -54.5t18 -57t37.5 -55t60 -45.5t89 -32.5t122 -11.5q98 0 166 19.5t104 56t51 80t15 100.5zM891 -88v18q0 85 -47.5 121t-210.5 78l-283 74q-73 -48 -111 -112t-38 -161v-18q0 -118 79.5 -180t266.5 -62q100 0 168 16t106 48.5t54 75
t16 102.5zM852 1280q0 -14 -18 -14h-46q-10 0 -17.5 5t-11.5 9t-16 20l-192 232l-193 -232q-1 -2 -4 -5q-19 -25 -31 -28q-5 -1 -10 -1h-45q-18 0 -18 14q0 12 8 20l205 263q23 30 47 30h82q24 0 47 -30l205 -263q8 -8 8 -20z" />
    <glyph glyph-name="Gbreve" unicode="&#x11e;" horiz-adv-x="1204" 
d="M1040 1458q0 -20 -10 -27t-33 -4q-217 21 -360 21q-66 0 -123.5 -15t-114 -54.5t-96.5 -101t-65 -161.5t-25 -229v-254q0 -282 111.5 -420.5t312.5 -138.5q163 0 311 18v651q0 17 10 28t25 11h21q15 0 24.5 -11t9.5 -28v-690q0 -15 -10 -26t-24 -13q-212 -26 -367 -26
q-112 0 -203.5 38t-162 114t-109.5 202t-39 291v254q0 148 31 263t80.5 185.5t118.5 116t138 63t146 17.5q184 0 369 -21q34 -4 34 -32v-21zM651 1626q132 0 211.5 81t79.5 226q0 21 -20 21h-45q-17 0 -17 -21q0 -65 -18 -111.5t-49.5 -70.5t-66 -34.5t-75.5 -10.5
t-75.5 10.5t-66 34.5t-49.5 70.5t-18 111.5q0 21 -16 21h-45q-21 0 -21 -21q0 -145 79.5 -226t211.5 -81z" />
    <glyph glyph-name="gbreve" unicode="&#x11f;" horiz-adv-x="1093" 
d="M1001 1044q0 -32 -38 -32h-107q113 -91 113 -254v-17q0 -76 -21.5 -134.5t-69.5 -104.5t-131.5 -70t-201.5 -24q-135 0 -250 47q-70 -29 -70 -88q0 -49 60 -64l368 -96q179 -46 253.5 -103t74.5 -174v-18q0 -318 -434 -318q-225 0 -329.5 85t-104.5 233v18q0 99 47 179.5
t106 115.5l-14 4q-55 17 -82 53.5t-27 84.5q0 39 22 75.5t64 55.5q-106 86 -106 243v17q0 52 10 97t38.5 91.5t73.5 79t122 53.5t178 21h418q16 0 27 -9t11 -24v-23zM881 741v17q0 59 -15.5 104t-52 82.5t-104 57.5t-164.5 20q-82 0 -143 -15.5t-96.5 -39.5t-57 -60
t-28.5 -71t-7 -78v-17q0 -28 5.5 -54.5t18 -57t37.5 -55t60 -45.5t89 -32.5t122 -11.5q98 0 166 19.5t104 56t51 80t15 100.5zM891 -88v18q0 85 -47.5 121t-210.5 78l-283 74q-73 -48 -111 -112t-38 -161v-18q0 -118 79.5 -180t266.5 -62q100 0 168 16t106 48.5t54 75
t16 102.5zM547 1266q132 0 211.5 81t79.5 226q0 20 -21 20h-45q-10 0 -13 -4.5t-3 -15.5q0 -65 -18 -111.5t-49.5 -70.5t-66 -34.5t-75.5 -10.5t-75.5 10.5t-66 34.5t-49.5 70.5t-18 111.5q0 11 -3 15.5t-13 4.5h-46q-20 0 -20 -20q0 -145 79.5 -226t211.5 -81z" />
    <glyph glyph-name="Gdotaccent" unicode="&#x120;" horiz-adv-x="1204" 
d="M1040 1458q0 -20 -10 -27t-33 -4q-217 21 -360 21q-66 0 -123.5 -15t-114 -54.5t-96.5 -101t-65 -161.5t-25 -229v-254q0 -282 111.5 -420.5t312.5 -138.5q163 0 311 18v651q0 17 10 28t25 11h21q15 0 24.5 -11t9.5 -28v-690q0 -15 -10 -26t-24 -13q-212 -26 -367 -26
q-112 0 -203.5 38t-162 114t-109.5 202t-39 291v254q0 148 31 263t80.5 185.5t118.5 116t138 63t146 17.5q184 0 369 -21q34 -4 34 -32v-21zM690 1706q0 -17 -11.5 -28t-27.5 -11h-12q-16 0 -27.5 11t-11.5 28v152q0 15 12 26.5t27 11.5h12q15 0 27 -11.5t12 -26.5v-152z
" />
    <glyph glyph-name="gdotaccent" unicode="&#x121;" horiz-adv-x="1093" 
d="M1001 1044q0 -32 -38 -32h-107q113 -91 113 -254v-17q0 -76 -21.5 -134.5t-69.5 -104.5t-131.5 -70t-201.5 -24q-135 0 -250 47q-70 -29 -70 -88q0 -49 60 -64l368 -96q179 -46 253.5 -103t74.5 -174v-18q0 -318 -434 -318q-225 0 -329.5 85t-104.5 233v18q0 99 47 179.5
t106 115.5l-14 4q-55 17 -82 53.5t-27 84.5q0 39 22 75.5t64 55.5q-106 86 -106 243v17q0 52 10 97t38.5 91.5t73.5 79t122 53.5t178 21h418q16 0 27 -9t11 -24v-23zM881 741v17q0 59 -15.5 104t-52 82.5t-104 57.5t-164.5 20q-82 0 -143 -15.5t-96.5 -39.5t-57 -60
t-28.5 -71t-7 -78v-17q0 -28 5.5 -54.5t18 -57t37.5 -55t60 -45.5t89 -32.5t122 -11.5q98 0 166 19.5t104 56t51 80t15 100.5zM891 -88v18q0 85 -47.5 121t-210.5 78l-283 74q-73 -48 -111 -112t-38 -161v-18q0 -118 79.5 -180t266.5 -62q100 0 168 16t106 48.5t54 75
t16 102.5zM598 1352q0 -17 -11.5 -28t-27.5 -11h-12q-16 0 -27.5 11t-11.5 28v151q0 15 12 27t27 12h12q15 0 27 -12t12 -27v-151z" />
    <glyph glyph-name="Gcommaaccent" unicode="&#x122;" horiz-adv-x="1204" 
d="M1040 1458q0 -20 -10 -27t-33 -4q-217 21 -360 21q-66 0 -123.5 -15t-114 -54.5t-96.5 -101t-65 -161.5t-25 -229v-254q0 -282 111.5 -420.5t312.5 -138.5q163 0 311 18v651q0 17 10 28t25 11h21q15 0 24.5 -11t9.5 -28v-690q0 -15 -10 -26t-24 -13q-212 -26 -367 -26
q-112 0 -203.5 38t-162 114t-109.5 202t-39 291v254q0 148 31 263t80.5 185.5t118.5 116t138 63t146 17.5q184 0 369 -21q34 -4 34 -32v-21zM631 -113h49q25 0 25 -20q0 -11 -5 -19l-114 -208q-10 -21 -20 -30t-29 -9h-19q-18 0 -18 18q0 10 2 14l88 215q14 39 41 39z" />
    <glyph glyph-name="gcommaaccent" unicode="&#x123;" horiz-adv-x="1093" 
d="M1001 1044q0 -32 -38 -32h-107q113 -91 113 -254v-17q0 -76 -21.5 -134.5t-69.5 -104.5t-131.5 -70t-201.5 -24q-135 0 -250 47q-70 -29 -70 -88q0 -49 60 -64l368 -96q179 -46 253.5 -103t74.5 -174v-18q0 -318 -434 -318q-225 0 -329.5 85t-104.5 233v18q0 99 47 179.5
t106 115.5l-14 4q-55 17 -82 53.5t-27 84.5q0 39 22 75.5t64 55.5q-106 86 -106 243v17q0 52 10 97t38.5 91.5t73.5 79t122 53.5t178 21h418q16 0 27 -9t11 -24v-23zM881 741v17q0 59 -15.5 104t-52 82.5t-104 57.5t-164.5 20q-82 0 -143 -15.5t-96.5 -39.5t-57 -60
t-28.5 -71t-7 -78v-17q0 -28 5.5 -54.5t18 -57t37.5 -55t60 -45.5t89 -32.5t122 -11.5q98 0 166 19.5t104 56t51 80t15 100.5zM891 -88v18q0 85 -47.5 121t-210.5 78l-283 74q-73 -48 -111 -112t-38 -161v-18q0 -118 79.5 -180t266.5 -62q100 0 168 16t106 48.5t54 75
t16 102.5zM539 1266h-50q-24 0 -24 20q0 13 4 19l117 223q10 21 20 30t29 9h18q19 0 19 -19q0 -10 -2 -14l-90 -229q-14 -39 -41 -39z" />
    <glyph glyph-name="Hcircumflex" unicode="&#x124;" horiz-adv-x="1325" 
d="M1161 39q0 -16 -9.5 -27.5t-25.5 -11.5h-18q-16 0 -25.5 11.5t-9.5 27.5v733h-819v-733q0 -15 -10 -27t-25 -12h-20q-15 0 -25 12t-10 27v1444q0 15 10 27t25 12h20q15 0 25 -12t10 -27v-627h819v627q0 16 9.5 27.5t25.5 11.5h18q16 0 25.5 -11.5t9.5 -27.5v-1444z
M956 1640q0 -14 -18 -14h-45q-3 0 -6 0.5t-6 1.5t-4.5 2t-4.5 3.5t-4.5 3.5t-4.5 4.5t-4.5 5.5t-5 7t-5.5 7l-193 231l-192 -231q-2 -2 -5.5 -7t-5 -7t-4.5 -5.5t-4.5 -4.5t-4.5 -3.5t-4.5 -3.5t-4.5 -2t-6 -1.5t-6 -0.5h-45q-19 0 -19 14q0 13 8 21l205 262
q14 18 23.5 24.5t23.5 6.5h82q14 0 23.5 -6.5t23.5 -24.5l205 -262q8 -8 8 -21z" />
    <glyph glyph-name="hcircumflex" unicode="&#x125;" horiz-adv-x="1034" 
d="M901 27q0 -16 -9.5 -27.5t-25.5 -11.5h-20q-14 0 -23.5 11.5t-9.5 27.5v690q0 156 -71.5 234.5t-231.5 78.5q-152 0 -277 -37v-966q0 -16 -9.5 -27.5t-24.5 -11.5h-21q-15 0 -25 12t-10 27v1456q0 15 10 27t25 12h21q15 0 24.5 -11.5t9.5 -27.5v-410q148 37 277 37
q104 0 181 -29t122 -82.5t66.5 -123t21.5 -158.5v-690zM848 1640q0 -14 -19 -14h-45q-3 0 -6 0.5t-6 1.5t-4.5 2t-4.5 3.5t-4.5 3.5t-4.5 4.5t-4.5 5.5t-5 7t-5.5 7l-192 231l-193 -231q-2 -2 -5.5 -7t-5 -7t-4.5 -5.5t-4.5 -4.5t-4.5 -3.5t-4.5 -3.5t-4.5 -2t-6 -1.5
t-6 -0.5h-45q-18 0 -18 14q0 13 8 21l205 262q14 18 23.5 24.5t23.5 6.5h82q14 0 23.5 -6.5t23.5 -24.5l205 -262q8 -8 8 -21z" />
    <glyph glyph-name="Hbar" unicode="&#x126;" horiz-adv-x="1325" 
d="M39 1227h125v256q0 15 10 27t25 12h20q15 0 25 -12t10 -27v-256h819v256q0 16 9.5 27.5t25.5 11.5h18q16 0 25.5 -11.5t9.5 -27.5v-256h123q17 0 28 -9t11 -24v-20q0 -15 -11 -25t-28 -10h-123v-1100q0 -16 -9.5 -27.5t-25.5 -11.5h-18q-16 0 -25.5 11.5t-9.5 27.5v733
h-819v-733q0 -15 -10 -27t-25 -12h-20q-15 0 -25 12t-10 27v1100h-125q-17 0 -28 10t-11 25v20q0 15 11 24t28 9zM254 856h819v283h-819v-283z" />
    <glyph glyph-name="hbar" unicode="&#x127;" horiz-adv-x="1034" 
d="M559 1266h-326v-193q148 37 277 37q104 0 181 -29t122 -82.5t66.5 -123t21.5 -158.5v-678q0 -16 -9.5 -27.5t-25.5 -11.5h-20q-14 0 -23.5 11.5t-9.5 27.5v678q0 156 -71.5 234.5t-231.5 78.5q-152 0 -277 -37v-954q0 -16 -9.5 -27.5t-24.5 -11.5h-21q-15 0 -25 12
t-10 27v1227h-116q-39 0 -39 30v21q0 31 39 31h116v135q0 15 10 27t25 12h21q15 0 24.5 -11.5t9.5 -27.5v-135h326q39 0 39 -31v-21q0 -30 -39 -30z" />
    <glyph glyph-name="Itilde" unicode="&#x128;" horiz-adv-x="458" 
d="M274 39q0 -16 -9.5 -27.5t-24.5 -11.5h-21q-15 0 -25 12t-10 27v1444q0 15 10 27t25 12h21q15 0 24.5 -11.5t9.5 -27.5v-1444zM555 1800q0 -92 -42.5 -139t-117.5 -47q-81 0 -137 53l-98 96q-21 21 -32 30.5t-29.5 18.5t-37.5 9q-40 0 -62 -24t-22 -85v-53
q0 -19 -3.5 -26t-16.5 -7h-35q-13 0 -17.5 7.5t-4.5 25.5v53q0 92 43 139t118 47q80 0 136 -53l98 -96q57 -57 100 -57q40 0 61 23.5t21 84.5v53q0 18 4 25.5t17 7.5h34q13 0 18 -7.5t5 -25.5v-53z" />
    <glyph glyph-name="itilde" unicode="&#x129;" horiz-adv-x="417" 
d="M254 39q0 -15 -12 -27t-27 -12h-12q-15 0 -27 12t-12 27v1022q0 15 12 27t27 12h12q15 0 27 -12t12 -27v-1022zM539 1442q0 -92 -42.5 -139.5t-117.5 -47.5q-80 0 -137 54l-99 96q-21 21 -32 30.5t-29 18t-37 8.5q-40 0 -62 -24t-22 -84v-54q0 -19 -3.5 -25.5t-16.5 -6.5
h-35q-13 0 -18 7t-5 25v54q0 92 43 139t119 47q79 0 135 -53l99 -96q58 -58 100 -58q40 0 61 24t21 85v53q0 19 3.5 26t16.5 7h35q13 0 18 -7.5t5 -25.5v-53z" />
    <glyph glyph-name="Imacron" unicode="&#x12a;" horiz-adv-x="458" 
d="M274 39q0 -16 -9.5 -27.5t-24.5 -11.5h-21q-15 0 -25 12t-10 27v1444q0 15 10 27t25 12h21q15 0 24.5 -11.5t9.5 -27.5v-1444zM543 1753q0 -33 -41 -33h-545q-41 0 -41 33v23q0 30 41 30h545q41 0 41 -30v-23z" />
    <glyph glyph-name="imacron" unicode="&#x12b;" horiz-adv-x="417" 
d="M254 39q0 -15 -12 -27t-27 -12h-12q-15 0 -27 12t-12 27v1022q0 15 12 27t27 12h12q15 0 27 -12t12 -27v-1022zM522 1438q0 -33 -41 -33h-544q-41 0 -41 33v22q0 31 41 31h544q41 0 41 -31v-22z" />
    <glyph glyph-name="Ibreve" unicode="&#x12c;" horiz-adv-x="458" 
d="M274 39q0 -16 -9.5 -27.5t-24.5 -11.5h-21q-15 0 -25 12t-10 27v1444q0 15 10 27t25 12h21q15 0 24.5 -11.5t9.5 -27.5v-1444zM229 1626q132 0 211.5 81t79.5 226q0 21 -20 21h-45q-17 0 -17 -21q0 -65 -18 -111.5t-49.5 -70.5t-66 -34.5t-75.5 -10.5t-75.5 10.5
t-66 34.5t-49.5 70.5t-18 111.5q0 21 -16 21h-45q-20 0 -20 -21q0 -145 79 -226t211 -81z" />
    <glyph glyph-name="ibreve" unicode="&#x12d;" horiz-adv-x="417" 
d="M254 39q0 -15 -12 -27t-27 -12h-12q-15 0 -27 12t-12 27v1022q0 15 12 27t27 12h12q15 0 27 -12t12 -27v-1022zM209 1266q132 0 211.5 81t79.5 226q0 20 -21 20h-45q-10 0 -13 -4.5t-3 -15.5q0 -65 -18 -111.5t-49.5 -70.5t-66 -34.5t-75.5 -10.5t-75.5 10.5t-66 34.5
t-49.5 70.5t-18 111.5q0 11 -3 15.5t-13 4.5h-45q-21 0 -21 -20q0 -145 79.5 -226t211.5 -81z" />
    <glyph glyph-name="Iogonek" unicode="&#x12e;" horiz-adv-x="458" 
d="M184 41v1442q0 15 10 27t25 12h21q15 0 24.5 -11.5t9.5 -27.5v-1450q0 -23 -16 -33l-43 -25q-91 -52 -123.5 -90.5t-32.5 -85.5q0 -66 38.5 -96.5t127.5 -30.5q77 0 172 27q12 4 17 4q10 0 10 -14v-37q0 -17 -23 -23q-87 -28 -176 -28q-68 0 -118 17t-76.5 46t-38.5 62
t-12 71q0 70 40.5 120t131.5 103z" />
    <glyph glyph-name="iogonek" unicode="&#x12f;" horiz-adv-x="417" 
d="M164 41v1020q0 15 10 27t25 12h20q15 0 25 -12t10 -27v-1028q0 -23 -16 -33l-43 -25q-91 -52 -123.5 -90.5t-32.5 -85.5q0 -66 38.5 -96.5t127.5 -30.5q77 0 172 27q12 4 16 4q10 0 10 -14v-37q0 -18 -22 -23q-87 -28 -176 -28q-68 0 -118 17t-77 46t-39 62t-12 71
q0 68 40 116.5t132 106.5zM254 1341q0 -17 -11.5 -27.5t-27.5 -10.5h-12q-16 0 -27.5 10.5t-11.5 27.5v152q0 15 12 27t27 12h12q15 0 27 -12t12 -27v-152z" />
    <glyph glyph-name="Idotaccent" unicode="&#x130;" horiz-adv-x="458" 
d="M274 39q0 -16 -9.5 -27.5t-24.5 -11.5h-21q-15 0 -25 12t-10 27v1444q0 15 10 27t25 12h21q15 0 24.5 -11.5t9.5 -27.5v-1444zM274 1665q0 -17 -11.5 -28t-26.5 -11h-13q-16 0 -27.5 11t-11.5 28v152q0 15 12 26.5t27 11.5h13q15 0 26.5 -11.5t11.5 -26.5v-152z" />
    <glyph glyph-name="dotlessi" unicode="&#x131;" horiz-adv-x="417" 
d="M254 39q0 -15 -12 -27t-27 -12h-12q-15 0 -27 12t-12 27v1022q0 15 12 27t27 12h12q15 0 27 -12t12 -27v-1022z" />
    <glyph glyph-name="IJ" unicode="&#x132;" horiz-adv-x="917" 
d="M274 39q0 -16 -9.5 -27.5t-24.5 -11.5h-21q-15 0 -25 12t-10 27v1444q0 15 10 27t25 12h21q15 0 24.5 -11.5t9.5 -27.5v-1444zM733 -123q0 -147 -65 -211.5t-230 -64.5h-28q-41 0 -41 28v21q0 31 41 31h28q126 0 165.5 37.5t39.5 158.5v1606q0 15 10 27t25 12h20
q15 0 25 -12t10 -27v-1606z" />
    <glyph glyph-name="ij" unicode="&#x133;" horiz-adv-x="835" 
d="M254 1341q0 -17 -11.5 -27.5t-27.5 -10.5h-12q-16 0 -27.5 10.5t-11.5 27.5v152q0 15 12 27t27 12h12q15 0 27 -12t12 -27v-152zM254 39q0 -15 -12 -27t-27 -12h-12q-15 0 -27 12t-12 27v1022q0 15 12 27t27 12h12q15 0 27 -12t12 -27v-1022zM672 1341q0 -17 -11.5 -27.5
t-27.5 -10.5h-12q-16 0 -27.5 10.5t-11.5 27.5v152q0 15 12 27t27 12h12q15 0 27 -12t12 -27v-152zM672 -176q0 -126 -51 -174.5t-160 -48.5q-39 0 -86 6q-21 3 -28 9t-7 19v19q0 24 43 24h78q70 0 95.5 28.5t25.5 117.5v1237q0 16 9 27.5t23 11.5h23q16 0 25.5 -11.5
t9.5 -27.5v-1237z" />
    <glyph glyph-name="Jcircumflex" unicode="&#x134;" horiz-adv-x="458" 
d="M274 -123q0 -147 -65 -211.5t-229 -64.5h-29q-41 0 -41 28v21q0 31 41 31h29q126 0 165 37.5t39 158.5v1606q0 15 10 27t25 12h21q15 0 24.5 -11.5t9.5 -27.5v-1606zM530 1640q0 -14 -18 -14h-45q-3 0 -6 0.5t-6 1.5t-4.5 2t-4.5 3.5t-4.5 3.5t-4.5 4.5t-4.5 5.5t-5 7
t-5.5 7l-193 231l-192 -231q-2 -2 -5.5 -7t-5 -7t-4.5 -5.5t-4.5 -4.5t-4.5 -3.5t-4.5 -3.5t-4.5 -2t-6 -1.5t-6 -0.5h-45q-19 0 -19 14q0 12 9 21l204 262q14 18 23.5 24.5t23.5 6.5h82q14 0 23.5 -6.5t23.5 -24.5l205 -262q8 -8 8 -21z" />
    <glyph glyph-name="jcircumflex" unicode="&#x135;" horiz-adv-x="417" 
d="M254 -176q0 -126 -51 -174.5t-160 -48.5q-39 0 -86 6q-21 3 -28 9t-7 19v19q0 24 43 24h78q70 0 95.5 28.5t25.5 117.5v1237q0 16 9.5 27.5t23.5 11.5h22q16 0 25.5 -11.5t9.5 -27.5v-1237zM508 1280q0 -14 -19 -14h-45q-10 0 -17.5 5t-11.5 9t-16 20l-192 232l-193 -232
q-1 -2 -4 -5q-19 -25 -31 -28q-5 -1 -10 -1h-45q-18 0 -18 14q0 12 8 20l205 263q23 30 47 30h82q24 0 47 -30l205 -263q8 -8 8 -20z" />
    <glyph glyph-name="Kcommaaccent" unicode="&#x136;" horiz-adv-x="1110" 
d="M1036 1495q0 -21 -16 -37l-688 -667l702 -730q21 -23 12.5 -44t-36.5 -21q-31 0 -47 16l-709 738v-711q0 -15 -10 -27t-25 -12h-20q-15 0 -25 12t-10 27v1444q0 15 12 27t27 12h12q15 0 27 -12t12 -27v-656l696 680q26 23 47 23q16 0 27.5 -11t11.5 -24zM584 -113h49
q24 0 24 -20q0 -13 -4 -19l-114 -208q-10 -21 -20.5 -30t-29.5 -9h-18q-18 0 -18 18q0 10 2 14l88 215q14 39 41 39z" />
    <glyph glyph-name="kcommaaccent" unicode="&#x137;" horiz-adv-x="909" 
d="M815 51q19 -20 12 -41.5t-36 -21.5q-38 0 -62 24l-496 531v-516q0 -15 -11.5 -27t-26.5 -12h-13q-15 0 -27 12t-12 27v1456q0 15 12 27t27 12h13q15 0 26.5 -12t11.5 -27v-862l504 471q21 18 49 18q29 0 39 -24.5t-12 -43.5l-502 -458zM459 -113h49q24 0 24 -20
q0 -13 -4 -19l-114 -208q-10 -21 -20 -30t-29 -9h-19q-18 0 -18 18q0 10 2 14l88 215q14 39 41 39z" />
    <glyph glyph-name="kgreenlandic" unicode="&#x138;" horiz-adv-x="909" 
d="M829 20q0 -14 -10 -23t-28 -9q-38 0 -62 24l-496 531v-504q0 -15 -11.5 -27t-26.5 -12h-13q-15 0 -27 12t-12 27v1022q0 15 12 27t27 12h13q15 0 26.5 -12t11.5 -27v-440l504 471q21 18 49 18q18 0 29.5 -11.5t11.5 -25.5q0 -20 -14 -31l-502 -458l504 -533
q14 -18 14 -31z" />
    <glyph glyph-name="Lacute" unicode="&#x139;" horiz-adv-x="989" 
d="M918 35q0 -15 -11 -25t-28 -10h-467q-123 0 -185.5 52.5t-62.5 176.5v1254q0 15 10 27t25 12h20q15 0 25 -12t10 -27v-1254q0 -89 38 -117t120 -28h467q17 0 28 -9t11 -24v-16zM735 1937q0 -8 -8 -16l-219 -262q-2 -2 -5.5 -7t-5 -7t-4.5 -5.5t-4.5 -4.5t-4.5 -3.5
t-4.5 -3.5t-4.5 -2t-6 -1.5t-6 -0.5h-45q-19 0 -19 14q0 12 9 21l204 262q14 18 23.5 24.5t23.5 6.5h54q22 0 22 -15z" />
    <glyph glyph-name="lacute" unicode="&#x13a;" horiz-adv-x="417" 
d="M254 27q0 -15 -10 -27t-25 -12h-20q-15 0 -25 12t-10 27v1456q0 15 10 27t25 12h20q15 0 25 -12t10 -27v-1456zM449 1937q0 -7 -9 -16l-219 -262q-2 -2 -5.5 -7t-5 -7t-4.5 -5.5t-4.5 -4.5t-4.5 -3.5t-4.5 -3.5t-4.5 -2t-6 -1.5t-6 -0.5h-45q-18 0 -18 14q0 13 8 21
l205 262q14 18 23.5 24.5t23.5 6.5h53q23 0 23 -15z" />
    <glyph glyph-name="Lcommaaccent" unicode="&#x13b;" horiz-adv-x="989" 
d="M918 35q0 -15 -11 -25t-28 -10h-467q-123 0 -185.5 52.5t-62.5 176.5v1254q0 15 10 27t25 12h20q15 0 25 -12t10 -27v-1254q0 -89 38 -117t120 -28h467q17 0 28 -9t11 -24v-16zM522 -113h49q25 0 25 -20q0 -13 -4 -19l-115 -208q-10 -21 -20 -30t-29 -9h-18q-19 0 -19 18
q0 10 2 14l88 215q14 39 41 39z" />
    <glyph glyph-name="lcommaaccent" unicode="&#x13c;" horiz-adv-x="417" 
d="M254 27q0 -15 -10 -27t-25 -12h-20q-15 0 -25 12t-10 27v1456q0 15 10 27t25 12h20q15 0 25 -12t10 -27v-1456zM195 -113h49q24 0 24 -20q0 -13 -4 -19l-114 -208q-10 -21 -20.5 -30t-29.5 -9h-18q-19 0 -19 18q0 8 3 14l88 215q14 39 41 39z" />
    <glyph glyph-name="Lcaron" unicode="&#x13d;" horiz-adv-x="989" 
d="M918 35q0 -15 -11 -25t-28 -10h-467q-123 0 -185.5 52.5t-62.5 176.5v1254q0 15 10 27t25 12h20q15 0 25 -12t10 -27v-1254q0 -89 38 -117t120 -28h467q17 0 28 -9t11 -24v-16zM475 1092q-20 0 -20 20q0 6 4 18l125 353q14 39 41 39h39q14 0 20.5 -8.5t-0.5 -30.5
l-139 -353q-8 -22 -16 -30t-23 -8h-31z" />
    <glyph glyph-name="lcaron" unicode="&#x13e;" horiz-adv-x="628" 
d="M254 39q0 -15 -10 -27t-25 -12h-20q-15 0 -25 12t-10 27v1444q0 15 10 27t25 12h20q15 0 25 -12t10 -27v-1444zM438 1092q-20 0 -20 20q0 6 4 18l125 353q14 39 41 39h39q14 0 20.5 -8.5t-0.5 -30.5l-139 -353q-8 -22 -16 -30t-23 -8h-31z" />
    <glyph glyph-name="Ldot" unicode="&#x13f;" horiz-adv-x="989" 
d="M918 35q0 -15 -11 -25t-28 -10h-467q-123 0 -185.5 52.5t-62.5 176.5v1254q0 15 10 27t25 12h20q15 0 25 -12t10 -27v-1254q0 -89 38 -117t120 -28h467q17 0 28 -9t11 -24v-16zM647 760q0 -17 -11.5 -28t-27.5 -11h-12q-16 0 -27.5 11t-11.5 28v151q0 15 12 27t27 12h12
q15 0 27 -12t12 -27v-151z" />
    <glyph glyph-name="ldot" unicode="&#x140;" horiz-adv-x="610" 
d="M254 39q0 -15 -10 -27t-25 -12h-20q-15 0 -25 12t-10 27v1444q0 15 10 27t25 12h20q15 0 25 -12t10 -27v-1444zM545 709q0 -17 -11.5 -28t-27.5 -11h-12q-16 0 -27.5 11t-11.5 28v151q0 15 12 27t27 12h12q15 0 27 -12t12 -27v-151z" />
    <glyph glyph-name="Lslash" unicode="&#x141;" horiz-adv-x="1103" 
d="M1001 35q0 -15 -10.5 -25t-27.5 -10h-467q-123 0 -185.5 52.5t-62.5 176.5v439l-148 -213q-7 -11 -16.5 -13.5t-16 1.5t-6.5 10v59q0 27 17 51l170 246v674q0 15 10 27t25 12h20q15 0 25 -12t10 -27v-545l147 213q7 11 16.5 13.5t16 -1.5t6.5 -10v-59q0 -29 -16 -52
l-170 -245v-568q0 -89 38 -117t120 -28h467q17 0 27.5 -9t10.5 -24v-16z" />
    <glyph glyph-name="lslash" unicode="&#x142;" horiz-adv-x="585" 
d="M524 1085v-5.5t-0.5 -4.5t-0.5 -3.5t-1.5 -3.5t-2.5 -4.5l-4 -6t-5 -8.5l-172 -252v-770q0 -15 -10 -27t-25 -12h-20q-15 0 -25 12t-10 27v641l-148 -213q-8 -11 -17 -16t-15.5 -1.5t-6.5 15.5v71q0 16 13 33l174 252v674q0 15 10 27t25 12h20q15 0 25 -12t10 -27v-545
l147 213q12 17 21.5 20.5t13.5 -2t4 -12.5v-72z" />
    <glyph glyph-name="Nacute" unicode="&#x143;" horiz-adv-x="1333" 
d="M1169 92q0 -48 -26 -76t-66 -28q-51 0 -69 14q-23 19 -37 47l-690 1383q-7 14 -17 14t-10 -14v-1393q0 -15 -10 -27t-25 -12h-20q-15 0 -25 12t-10 27v1393q0 45 27.5 72.5t72.5 27.5q40 0 61.5 -16t36.5 -48l689 -1380q7 -14 16 -14q10 0 10 18v1391q0 16 9.5 27.5
t23.5 11.5h25q16 0 25 -11.5t9 -27.5v-1391zM907 1937q0 -8 -8 -16l-219 -262q-2 -2 -5.5 -7t-5 -7t-4.5 -5.5t-4.5 -4.5t-4.5 -3.5t-4.5 -3.5t-4.5 -2t-6 -1.5t-6 -0.5h-45q-19 0 -19 14q0 12 9 21l204 262q14 18 23.5 24.5t23.5 6.5h54q22 0 22 -15z" />
    <glyph glyph-name="nacute" unicode="&#x144;" horiz-adv-x="1067" 
d="M924 39q0 -16 -11 -27.5t-28 -11.5h-15q-15 0 -25.5 12t-10.5 27v680q0 164 -75.5 237.5t-201.5 73.5q-149 0 -324 -84v-907q0 -15 -11.5 -27t-26.5 -12h-13q-15 0 -27 12t-12 27v1020q0 18 10 29.5t27 11.5h17q17 0 26.5 -11.5t9.5 -29.5v-33q175 84 330 84
q77 0 140 -21.5t114 -66.5t79 -122t28 -181v-680zM774 1579q0 -8 -8 -16l-219 -263q-1 -2 -4 -5q-19 -25 -31 -28q-5 -1 -10 -1h-45q-19 0 -19 14q0 12 8 20l205 263q23 30 47 30h54q22 0 22 -14z" />
    <glyph glyph-name="Ncommaaccent" unicode="&#x145;" horiz-adv-x="1333" 
d="M1169 92q0 -48 -26 -76t-66 -28q-51 0 -69 14q-23 19 -37 47l-690 1383q-7 14 -17 14t-10 -14v-1393q0 -15 -10 -27t-25 -12h-20q-15 0 -25 12t-10 27v1393q0 45 27.5 72.5t72.5 27.5q40 0 61.5 -16t36.5 -48l689 -1380q7 -14 16 -14q10 0 10 18v1391q0 16 9.5 27.5
t23.5 11.5h25q16 0 25 -11.5t9 -27.5v-1391zM662 -113h49q24 0 24 -20q0 -13 -4 -19l-115 -208q-10 -21 -20 -30t-29 -9h-18q-19 0 -19 18q0 10 2 14l89 215q14 39 41 39z" />
    <glyph glyph-name="ncommaaccent" unicode="&#x146;" horiz-adv-x="1067" 
d="M924 39q0 -16 -11 -27.5t-28 -11.5h-15q-15 0 -25.5 12t-10.5 27v680q0 164 -75.5 237.5t-201.5 73.5q-149 0 -324 -84v-907q0 -15 -11.5 -27t-26.5 -12h-13q-15 0 -27 12t-12 27v1020q0 18 10 29.5t27 11.5h17q17 0 26.5 -11.5t9.5 -29.5v-33q175 84 330 84
q77 0 140 -21.5t114 -66.5t79 -122t28 -181v-680zM510 -113h49q25 0 25 -20q0 -13 -4 -19l-115 -208q-10 -21 -20 -30t-29 -9h-19q-18 0 -18 18q0 10 2 14l88 215q14 39 41 39z" />
    <glyph glyph-name="Ncaron" unicode="&#x147;" horiz-adv-x="1333" 
d="M1169 92q0 -48 -26 -76t-66 -28q-51 0 -69 14q-23 19 -37 47l-690 1383q-7 14 -17 14t-10 -14v-1393q0 -15 -10 -27t-25 -12h-20q-15 0 -25 12t-10 27v1393q0 45 27.5 72.5t72.5 27.5q40 0 61.5 -16t36.5 -48l689 -1380q7 -14 16 -14q10 0 10 18v1391q0 16 9.5 27.5
t23.5 11.5h25q16 0 25 -11.5t9 -27.5v-1391zM969 1937q0 -12 -8 -20l-205 -262q-14 -18 -23.5 -24.5t-23.5 -6.5h-82q-14 0 -23.5 6.5t-23.5 24.5l-205 262q-8 8 -8 20q0 15 18 15h45q3 0 6 -0.5t6 -1.5t4.5 -2t4.5 -3.5t4.5 -3.5t4.5 -4.5t4.5 -5.5t5 -7t5.5 -7l193 -231
l192 231q2 2 5.5 7t5 7t4.5 5.5t4.5 4.5t4.5 3.5t4.5 3.5t4.5 2t6 1.5t6 0.5h45q19 0 19 -15z" />
    <glyph glyph-name="ncaron" unicode="&#x148;" horiz-adv-x="1067" 
d="M924 39q0 -16 -11 -27.5t-28 -11.5h-15q-15 0 -25.5 12t-10.5 27v680q0 164 -75.5 237.5t-201.5 73.5q-149 0 -324 -84v-907q0 -15 -11.5 -27t-26.5 -12h-13q-15 0 -27 12t-12 27v1020q0 18 10 29.5t27 11.5h17q17 0 26.5 -11.5t9.5 -29.5v-33q175 84 330 84
q77 0 140 -21.5t114 -66.5t79 -122t28 -181v-680zM836 1579q0 -11 -9 -20l-204 -263q-23 -30 -48 -30h-81q-25 0 -48 30l-204 263q-9 9 -9 20q0 14 19 14h45q10 0 17.5 -5t11.5 -9t16 -20l193 -232l192 232q1 2 4 5q19 25 31 28q5 1 10 1h45q19 0 19 -14z" />
    <glyph glyph-name="napostrophe" unicode="&#x149;" horiz-adv-x="1312" 
d="M268 1499q0 -10 -2 -16l-98 -353q-10 -38 -39 -38h-31q-18 0 -18 20q0 12 2 18l84 353q8 39 41 39h39q22 0 22 -23zM1169 39q0 -16 -11 -27.5t-28 -11.5h-14q-15 0 -26 12t-11 27v680q0 164 -75 237.5t-201 73.5q-149 0 -324 -84v-907q0 -15 -12 -27t-27 -12h-12
q-15 0 -27 12t-12 27v1020q0 18 10 29.5t27 11.5h16q17 0 27 -11.5t10 -29.5v-33q175 84 330 84q77 0 140 -21.5t113.5 -66.5t78.5 -122t28 -181v-680z" />
    <glyph glyph-name="Eng" unicode="&#x14a;" horiz-adv-x="1333" 
d="M1169 -125q0 -147 -65 -211.5t-230 -64.5h-28q-41 0 -41 28v21q0 30 41 30h28q126 0 165.5 38t39.5 159v113q-10 -2 -26 -2q-53 0 -82 63l-690 1383q-7 14 -17 14t-10 -14v-1393q0 -15 -10 -27t-25 -12h-20q-15 0 -25 12t-10 27v1393q0 45 27.5 72.5t72.5 27.5
q40 0 61.5 -16t36.5 -48l689 -1380q7 -14 16 -14q10 0 10 18v1391q0 16 9.5 27.5t23.5 11.5h25q16 0 25 -11.5t9 -27.5v-1608z" />
    <glyph glyph-name="eng" unicode="&#x14b;" horiz-adv-x="1067" 
d="M924 -176q0 -126 -51 -174.5t-160 -48.5q-39 0 -86 6q-21 3 -28 9t-7 19v19q0 24 43 24h78q70 0 95.5 28.5t25.5 117.5v895q0 164 -75.5 237.5t-201.5 73.5q-149 0 -324 -84v-907q0 -15 -11.5 -27t-26.5 -12h-13q-15 0 -27 12t-12 27v1020q0 18 10 29.5t27 11.5h17
q17 0 26.5 -11.5t9.5 -29.5v-33q175 84 330 84q77 0 140 -21.5t114 -66.5t79 -122t28 -181v-895z" />
    <glyph glyph-name="Omacron" unicode="&#x14c;" horiz-adv-x="1294" 
d="M1171 633q0 -167 -38.5 -292.5t-109.5 -202t-165 -113.5t-211 -37t-211 37t-165 113.5t-109.5 202t-38.5 292.5v254q0 167 38.5 292.5t109.5 202t165 113.5t211 37t211 -37t165 -113.5t109.5 -202t38.5 -292.5v-254zM1081 633v254q0 123 -21.5 218.5t-59.5 159t-93.5 105
t-119 59t-140.5 17.5t-140.5 -17.5t-119 -59t-93.5 -105t-59.5 -159t-21.5 -218.5v-254q0 -123 21.5 -218.5t59.5 -159t93.5 -105t119 -59t140.5 -17.5t140.5 17.5t119 59t93.5 105t59.5 159t21.5 218.5zM961 1753q0 -33 -41 -33h-545q-41 0 -41 33v23q0 30 41 30h545
q41 0 41 -30v-23z" />
    <glyph glyph-name="omacron" unicode="&#x14d;" horiz-adv-x="1069" 
d="M956 477q0 -235 -106.5 -362t-314.5 -127t-315 127t-107 362v144q0 235 107 362t315 127t314.5 -127t106.5 -362v-144zM866 477v144q0 409 -331 409q-332 0 -332 -409v-144q0 -409 332 -409q331 0 331 409zM848 1436q0 -33 -41 -33h-545q-41 0 -41 33v22q0 31 41 31h545
q41 0 41 -31v-22z" />
    <glyph glyph-name="Obreve" unicode="&#x14e;" horiz-adv-x="1294" 
d="M1171 633q0 -167 -38.5 -292.5t-109.5 -202t-165 -113.5t-211 -37t-211 37t-165 113.5t-109.5 202t-38.5 292.5v254q0 167 38.5 292.5t109.5 202t165 113.5t211 37t211 -37t165 -113.5t109.5 -202t38.5 -292.5v-254zM1081 633v254q0 123 -21.5 218.5t-59.5 159t-93.5 105
t-119 59t-140.5 17.5t-140.5 -17.5t-119 -59t-93.5 -105t-59.5 -159t-21.5 -218.5v-254q0 -123 21.5 -218.5t59.5 -159t93.5 -105t119 -59t140.5 -17.5t140.5 17.5t119 59t93.5 105t59.5 159t21.5 218.5zM649 1626q132 0 211.5 81t79.5 226q0 21 -20 21h-46q-16 0 -16 -21
q0 -65 -18 -111.5t-49.5 -70.5t-66 -34.5t-75.5 -10.5t-75.5 10.5t-66 34.5t-49.5 70.5t-18 111.5q0 21 -16 21h-45q-21 0 -21 -21q0 -145 79.5 -226t211.5 -81z" />
    <glyph glyph-name="obreve" unicode="&#x14f;" horiz-adv-x="1069" 
d="M956 477q0 -235 -106.5 -362t-314.5 -127t-315 127t-107 362v144q0 235 107 362t315 127t314.5 -127t106.5 -362v-144zM866 477v144q0 409 -331 409q-332 0 -332 -409v-144q0 -409 332 -409q331 0 331 409zM539 1266q132 0 211 81t79 226q0 20 -20 20h-45q-10 0 -13 -4.5
t-3 -15.5q0 -65 -18 -111.5t-49.5 -70.5t-66 -34.5t-75.5 -10.5t-75.5 10.5t-66 34.5t-49.5 70.5t-18 111.5q0 20 -17 20h-45q-20 0 -20 -20q0 -145 79.5 -226t211.5 -81z" />
    <glyph glyph-name="Ohungarumlaut" unicode="&#x150;" horiz-adv-x="1294" 
d="M1171 633q0 -167 -38.5 -292.5t-109.5 -202t-165 -113.5t-211 -37t-211 37t-165 113.5t-109.5 202t-38.5 292.5v254q0 167 38.5 292.5t109.5 202t165 113.5t211 37t211 -37t165 -113.5t109.5 -202t38.5 -292.5v-254zM1081 633v254q0 123 -21.5 218.5t-59.5 159t-93.5 105
t-119 59t-140.5 17.5t-140.5 -17.5t-119 -59t-93.5 -105t-59.5 -159t-21.5 -218.5v-254q0 -123 21.5 -218.5t59.5 -159t93.5 -105t119 -59t140.5 -17.5t140.5 17.5t119 59t93.5 105t59.5 159t21.5 218.5zM1030 1939q0 -8 -8 -16l-219 -262q-2 -2 -5.5 -7t-5 -7t-4.5 -5.5
t-4.5 -4.5t-4.5 -3.5t-4.5 -3.5t-4.5 -2t-6 -1.5t-6 -0.5h-45q-19 0 -19 14q0 13 8 21l205 262q14 18 23.5 24.5t23.5 6.5h54q22 0 22 -15zM743 1939q0 -8 -8 -16l-219 -262q-2 -2 -5.5 -7t-5 -7t-4.5 -5.5t-4.5 -4.5t-4.5 -3.5t-4.5 -3.5t-4.5 -2t-6 -1.5t-6 -0.5h-45
q-18 0 -18 14q0 13 8 21l205 262q14 18 23.5 24.5t23.5 6.5h53q22 0 22 -15z" />
    <glyph glyph-name="ohungarumlaut" unicode="&#x151;" horiz-adv-x="1069" 
d="M956 477q0 -235 -106.5 -362t-314.5 -127t-315 127t-107 362v144q0 235 107 362t315 127t314.5 -127t106.5 -362v-144zM866 477v144q0 409 -331 409q-332 0 -332 -409v-144q0 -409 332 -409q331 0 331 409zM918 1579q0 -7 -9 -16l-219 -263q-1 -2 -4 -5q-19 -25 -31 -28
q-5 -1 -10 -1h-45q-18 0 -18 14q0 12 8 20l205 263q23 30 47 30h53q23 0 23 -14zM631 1579q0 -8 -8 -16l-220 -263q-1 -2 -4 -5q-19 -25 -31 -28q-5 -1 -10 -1h-45q-18 0 -18 14q0 12 8 20l205 263q23 30 47 30h53q23 0 23 -14z" />
    <glyph glyph-name="OE" unicode="&#x152;" horiz-adv-x="2011" 
d="M1898 35q0 -15 -10.5 -25t-27.5 -10h-607q-89 0 -129.5 40t-40.5 126v39q-70 -105 -184 -161t-252 -56q-110 0 -205.5 36.5t-166.5 104t-111.5 171t-40.5 230.5v459q0 169 70.5 294t188 187t265.5 62q138 0 252 -55.5t184 -159.5v37q0 88 40 128t130 40h607
q17 0 27.5 -10t10.5 -25v-17q0 -32 -38 -32h-607q-49 0 -64 -18.5t-15 -65.5v-512h686q17 0 27.5 -9t10.5 -24v-21q0 -15 -10.5 -24.5t-27.5 -9.5h-686v-588q0 -45 15 -63.5t64 -18.5h607q17 0 27.5 -9t10.5 -24v-16zM1083 516v14v459v15v6q-6 205 -130.5 320.5
t-305.5 115.5q-88 0 -166 -30t-138 -86.5t-95 -144.5t-35 -196v-459q0 -143 60.5 -248.5t157.5 -156.5t216 -51q181 0 305.5 115.5t130.5 320.5v6z" />
    <glyph glyph-name="oe" unicode="&#x153;" horiz-adv-x="1822" 
d="M1686 567q0 -17 -11.5 -28t-27.5 -11h-670v-145q0 -167 91 -241t269 -74q119 0 291 20h8q35 0 35 -29v-12q0 -18 -8.5 -27t-30.5 -12q-172 -20 -301 -20q-318 0 -407 202q-50 -94 -143 -148t-224 -54q-102 0 -183.5 35t-132.5 94t-77.5 133t-26.5 156v286q0 82 26.5 156
t77.5 133t132.5 94t183.5 35q133 0 227 -56t144 -151q44 96 134 151.5t228 55.5q103 0 181 -31.5t124 -87.5t68.5 -126t22.5 -152v-146zM1595 610v103q0 63 -16.5 117.5t-50.5 100.5t-95 72.5t-143 26.5t-144 -26.5t-98 -72.5t-53.5 -100.5t-17.5 -117.5v-103h618zM889 406
v286q0 65 -21 124.5t-61 108t-104.5 77t-145.5 28.5t-145.5 -28.5t-104.5 -77t-61 -108t-21 -124.5v-286q0 -139 87 -238.5t245 -99.5t245 99.5t87 238.5z" />
    <glyph glyph-name="Racute" unicode="&#x154;" horiz-adv-x="1224" 
d="M1122 59q13 -20 8 -39.5t-30 -19.5h-27q-17 0 -31 18l-436 668q-7 -2 -45.5 -1t-42.5 1l-264 2v-649q0 -15 -10 -27t-25 -12h-20q-15 0 -25 12t-10 27v1446q0 14 11 26t24 13q144 8 319 8q286 0 421.5 -95t135.5 -323v-10q0 -184 -90 -280.5t-276 -127.5zM985 1104v10
q0 185 -113.5 258.5t-353.5 73.5q-183 0 -264 -8v-664q27 0 130.5 -1t133.5 -1q124 0 207.5 15t144 52.5t88 102t27.5 162.5zM852 1939q0 -8 -8 -16l-219 -262q-2 -2 -5.5 -7t-5 -7t-4.5 -5.5t-4.5 -4.5t-4.5 -3.5t-4.5 -3.5t-4.5 -2t-6 -1.5t-6 -0.5h-45q-19 0 -19 14
q0 13 8 21l205 262q14 18 23.5 24.5t23.5 6.5h53q23 0 23 -15z" />
    <glyph glyph-name="racute" unicode="&#x155;" horiz-adv-x="632" 
d="M573 1063q0 -33 -55 -33q-135 0 -285 -94v-897q0 -15 -11.5 -27t-26.5 -12h-13q-15 0 -27 12t-12 27v1020q0 18 10 29.5t27 11.5h17q17 0 26.5 -11.5t9.5 -29.5v-43q78 51 144 72.5t141 21.5q55 0 55 -31v-16zM555 1579q0 -8 -8 -16l-219 -263q-1 -2 -4 -5
q-19 -25 -31 -28q-5 -1 -10 -1h-45q-19 0 -19 14q0 12 8 20l205 263q23 30 47 30h53q23 0 23 -14z" />
    <glyph glyph-name="Rcommaaccent" unicode="&#x156;" horiz-adv-x="1224" 
d="M1122 59q13 -20 8 -39.5t-30 -19.5h-27q-17 0 -31 18l-436 668q-7 -2 -45.5 -1t-42.5 1l-264 2v-649q0 -15 -10 -27t-25 -12h-20q-15 0 -25 12t-10 27v1446q0 14 11 26t24 13q144 8 319 8q286 0 421.5 -95t135.5 -323v-10q0 -184 -90 -280.5t-276 -127.5zM985 1104v10
q0 185 -113.5 258.5t-353.5 73.5q-183 0 -264 -8v-664q27 0 130.5 -1t133.5 -1q124 0 207.5 15t144 52.5t88 102t27.5 162.5zM602 -113h49q25 0 25 -20q0 -13 -4 -19l-115 -208q-10 -21 -20 -30t-29 -9h-19q-18 0 -18 18q0 10 2 14l88 215q14 39 41 39z" />
    <glyph glyph-name="rcommaaccent" unicode="&#x157;" horiz-adv-x="632" 
d="M573 1063q0 -33 -55 -33q-135 0 -285 -94v-897q0 -15 -11.5 -27t-26.5 -12h-13q-15 0 -27 12t-12 27v1020q0 18 10 29.5t27 11.5h17q17 0 26.5 -11.5t9.5 -29.5v-43q78 51 144 72.5t141 21.5q55 0 55 -31v-16zM344 -113h49q25 0 25 -20q0 -13 -4 -19l-115 -208
q-10 -21 -20 -30t-29 -9h-19q-18 0 -18 18q0 10 2 14l88 215q14 39 41 39z" />
    <glyph glyph-name="Rcaron" unicode="&#x158;" horiz-adv-x="1224" 
d="M1122 59q13 -20 8 -39.5t-30 -19.5h-27q-17 0 -31 18l-436 668q-7 -2 -45.5 -1t-42.5 1l-264 2v-649q0 -15 -10 -27t-25 -12h-20q-15 0 -25 12t-10 27v1446q0 14 11 26t24 13q144 8 319 8q286 0 421.5 -95t135.5 -323v-10q0 -184 -90 -280.5t-276 -127.5zM985 1104v10
q0 185 -113.5 258.5t-353.5 73.5q-183 0 -264 -8v-664q27 0 130.5 -1t133.5 -1q124 0 207.5 15t144 52.5t88 102t27.5 162.5zM887 1939q0 -12 -8 -20l-205 -262q-14 -18 -23.5 -24.5t-23.5 -6.5h-82q-14 0 -23.5 6.5t-23.5 24.5l-205 262q-8 8 -8 20q0 15 18 15h45
q3 0 6 -0.5t6 -1.5t4.5 -2t4.5 -3.5t4.5 -3.5t4.5 -4.5t4.5 -5.5t5 -7t5.5 -7l193 -231l192 231q2 2 5.5 7t5 7t4.5 5.5t4.5 4.5t4.5 3.5t4.5 3.5t4.5 2t6 1.5t6 0.5h45q19 0 19 -15z" />
    <glyph glyph-name="rcaron" unicode="&#x159;" horiz-adv-x="632" 
d="M573 1063q0 -33 -55 -33q-135 0 -285 -94v-897q0 -15 -11.5 -27t-26.5 -12h-13q-15 0 -27 12t-12 27v1020q0 18 10 29.5t27 11.5h17q17 0 26.5 -11.5t9.5 -29.5v-43q78 51 144 72.5t141 21.5q55 0 55 -31v-16zM616 1579q0 -12 -8 -20l-205 -263q-23 -30 -47 -30h-82
q-24 0 -47 30l-204 263q-9 9 -9 20q0 14 19 14h45q10 0 17.5 -5t11.5 -9t16 -20l192 -232l193 232q1 2 4 5q19 25 31 28q5 1 10 1h45q18 0 18 -14z" />
    <glyph glyph-name="Sacute" unicode="&#x15a;" horiz-adv-x="1085" 
d="M782 1939q0 -8 -8 -16l-219 -262q-2 -2 -5.5 -7t-5 -7t-4.5 -5.5t-4.5 -4.5t-4.5 -3.5t-4.5 -3.5t-4.5 -2t-6 -1.5t-6 -0.5h-45q-19 0 -19 14q0 12 9 21l204 262q24 31 48 31h53q22 0 22 -15zM973 379q0 -391 -475 -391q-173 0 -299 20q-30 5 -43 13.5t-13 29.5v8
q0 39 47 35q165 -20 308 -20q90 0 158 16t110 42.5t68 66.5t35.5 83t9.5 97q0 45 -12 80.5t-31 63.5t-62 61.5t-83.5 60t-117.5 74.5q-7 4 -10 6l-129 80q-66 41 -106 68.5t-86 67.5t-70.5 77t-41.5 87.5t-17 108.5q0 91 40 155.5t111 98.5t151 49t177 15q145 0 285 -19
q31 -3 43 -11.5t12 -28.5v-11q0 -22 -15.5 -28.5t-48.5 -3.5q-144 16 -278 16q-199 0 -292 -58t-93 -174q0 -53 16 -96t55 -82.5t84 -71.5t121 -79l131 -80q80 -48 131.5 -82.5t99.5 -75.5t73.5 -79.5t41 -85.5t15.5 -103z" />
    <glyph glyph-name="sacute" unicode="&#x15b;" horiz-adv-x="901" 
d="M799 272q0 -79 -28 -136t-79 -88.5t-112 -45.5t-136 -14q-149 0 -297 28q-45 9 -45 33v23q0 35 45 28q196 -32 302 -32q59 0 103 9t81 30.5t56.5 63t19.5 101.5q0 63 -44 108t-173 116l-132 71q-65 35 -105 62t-75 62t-51 75.5t-16 91.5q0 55 17 99t46 72t70 46.5
t85 26.5t95 8q136 0 293 -18q43 -6 43 -35v-17q0 -36 -43 -32q-194 22 -285 22q-112 0 -171.5 -36t-59.5 -136q0 -63 46.5 -108.5t151.5 -104.5l138 -76q141 -78 200.5 -140t59.5 -157zM690 1579q0 -8 -8 -16l-219 -263q-1 -2 -4 -5q-19 -25 -31 -28q-5 -1 -10 -1h-45
q-19 0 -19 14q0 12 8 20l205 263q23 30 47 30h54q22 0 22 -14z" />
    <glyph glyph-name="Scircumflex" unicode="&#x15c;" horiz-adv-x="1085" 
d="M836 1640q0 -14 -19 -14h-45q-3 0 -6 0.5t-6 1.5t-4.5 2t-4.5 3.5t-4.5 3.5t-4.5 4.5t-4.5 5.5t-5 7t-5.5 7l-192 231l-193 -231q-2 -2 -5.5 -7t-5 -7t-4.5 -5.5t-4.5 -4.5t-4.5 -3.5t-4.5 -3.5t-4.5 -2t-6 -1.5t-6 -0.5h-45q-19 0 -19 14q0 12 9 21l204 262q24 31 48 31
h81q24 0 48 -31l204 -262q9 -9 9 -21zM973 379q0 -391 -475 -391q-173 0 -299 20q-30 5 -43 13.5t-13 29.5v8q0 39 47 35q165 -20 308 -20q90 0 158 16t110 42.5t68 66.5t35.5 83t9.5 97q0 45 -12 80.5t-31 63.5t-62 61.5t-83.5 60t-117.5 74.5q-7 4 -10 6l-129 80
q-66 41 -106 68.5t-86 67.5t-70.5 77t-41.5 87.5t-17 108.5q0 91 40 155.5t111 98.5t151 49t177 15q145 0 285 -19q31 -3 43 -11.5t12 -28.5v-11q0 -22 -15.5 -28.5t-48.5 -3.5q-144 16 -278 16q-199 0 -292 -58t-93 -174q0 -53 16 -96t55 -82.5t84 -71.5t121 -79l131 -80
q80 -48 131.5 -82.5t99.5 -75.5t73.5 -79.5t41 -85.5t15.5 -103z" />
    <glyph glyph-name="scircumflex" unicode="&#x15d;" horiz-adv-x="901" 
d="M799 272q0 -79 -28 -136t-79 -88.5t-112 -45.5t-136 -14q-149 0 -297 28q-45 9 -45 33v23q0 35 45 28q196 -32 302 -32q59 0 103 9t81 30.5t56.5 63t19.5 101.5q0 63 -44 108t-173 116l-132 71q-65 35 -105 62t-75 62t-51 75.5t-16 91.5q0 55 17 99t46 72t70 46.5
t85 26.5t95 8q136 0 293 -18q43 -6 43 -35v-17q0 -36 -43 -32q-194 22 -285 22q-112 0 -171.5 -36t-59.5 -136q0 -63 46.5 -108.5t151.5 -104.5l138 -76q141 -78 200.5 -140t59.5 -157zM731 1280q0 -14 -18 -14h-45q-10 0 -17.5 5t-11.5 9t-16 20l-193 232l-192 -232
q-1 -2 -4 -5q-19 -25 -31 -28q-5 -1 -10 -1h-46q-18 0 -18 14q0 12 8 20l205 263q23 30 47 30h82q24 0 47 -30l205 -263q8 -8 8 -20z" />
    <glyph glyph-name="uni015E" unicode="&#x15e;" horiz-adv-x="1085" 
d="M582 -127q0 -7 -9 -16l-186 -222q-22 -28 -31 -32q-6 -2 -14 -2h-45q-18 0 -18 14q0 12 8 20l172 222q23 30 47 30h53q23 0 23 -14zM973 379q0 -391 -475 -391q-173 0 -299 20q-30 5 -43 13.5t-13 29.5v8q0 39 47 35q165 -20 308 -20q90 0 158 16t110 42.5t68 66.5
t35.5 83t9.5 97q0 45 -12 80.5t-31 63.5t-62 61.5t-83.5 60t-117.5 74.5q-7 4 -10 6l-129 80q-66 41 -106 68.5t-86 67.5t-70.5 77t-41.5 87.5t-17 108.5q0 91 40 155.5t111 98.5t151 49t177 15q145 0 285 -19q31 -3 43 -11.5t12 -28.5v-11q0 -22 -15.5 -28.5t-48.5 -3.5
q-144 16 -278 16q-199 0 -292 -58t-93 -174q0 -53 16 -96t55 -82.5t84 -71.5t121 -79l131 -80q80 -48 131.5 -82.5t99.5 -75.5t73.5 -79.5t41 -85.5t15.5 -103z" />
    <glyph glyph-name="uni015F" unicode="&#x15f;" horiz-adv-x="901" 
d="M799 272q0 -79 -28 -136t-79 -88.5t-112 -45.5t-136 -14q-149 0 -297 28q-45 9 -45 33v23q0 35 45 28q196 -32 302 -32q59 0 103 9t81 30.5t56.5 63t19.5 101.5q0 63 -44 108t-173 116l-132 71q-65 35 -105 62t-75 62t-51 75.5t-16 91.5q0 55 17 99t46 72t70 46.5
t85 26.5t95 8q136 0 293 -18q43 -6 43 -35v-17q0 -36 -43 -32q-194 22 -285 22q-112 0 -171.5 -36t-59.5 -136q0 -63 46.5 -108.5t151.5 -104.5l138 -76q141 -78 200.5 -140t59.5 -157zM510 -127q0 -8 -8 -16l-187 -222q-22 -28 -31 -32q-6 -2 -14 -2h-45q-18 0 -18 14
q0 12 8 20l172 222q23 30 47 30h53q23 0 23 -14z" />
    <glyph glyph-name="Scaron" unicode="&#x160;" horiz-adv-x="1085" 
d="M973 379q0 -391 -475 -391q-173 0 -299 20q-30 5 -43 13.5t-13 29.5v8q0 39 47 35q165 -20 308 -20q90 0 158 16t110 42.5t68 66.5t35.5 83t9.5 97q0 45 -12 80.5t-31 63.5t-62 61.5t-83.5 60t-117.5 74.5q-7 4 -10 6l-129 80q-66 41 -106 68.5t-86 67.5t-70.5 77
t-41.5 87.5t-17 108.5q0 91 40 155.5t111 98.5t151 49t177 15q145 0 285 -19q31 -3 43 -11.5t12 -28.5v-11q0 -22 -15.5 -28.5t-48.5 -3.5q-144 16 -278 16q-199 0 -292 -58t-93 -174q0 -53 16 -96t55 -82.5t84 -71.5t121 -79l131 -80q80 -48 131.5 -82.5t99.5 -75.5
t73.5 -79.5t41 -85.5t15.5 -103zM844 1939q0 -12 -8 -20l-205 -262q-14 -18 -23.5 -24.5t-23.5 -6.5h-82q-14 0 -23.5 6.5t-23.5 24.5l-205 262q-8 8 -8 20q0 15 18 15h45q3 0 6 -0.5t6 -1.5t4.5 -2t4.5 -3.5t4.5 -3.5t4.5 -4.5t4.5 -5.5t5 -7t5.5 -7l193 -231l192 231
q2 2 5.5 7t5 7t4.5 5.5t4.5 4.5t4.5 3.5t4.5 3.5t4.5 2t6 1.5t6 0.5h45q19 0 19 -15z" />
    <glyph glyph-name="scaron" unicode="&#x161;" horiz-adv-x="901" 
d="M799 272q0 -79 -28 -136t-79 -88.5t-112 -45.5t-136 -14q-149 0 -297 28q-25 5 -35 11t-10 22v23q0 35 45 28q196 -32 302 -32q59 0 103 9t81 30.5t56.5 63t19.5 101.5q0 63 -44 108t-173 116l-132 71q-65 35 -105 62t-75 62t-51 75.5t-16 91.5q0 55 17 99t46 72t70 46.5
t85 26.5t95 8q136 0 293 -18q24 -3 33.5 -9.5t9.5 -25.5v-17q0 -24 -9 -29.5t-34 -2.5q-194 22 -285 22q-112 0 -171.5 -36t-59.5 -136q0 -63 46.5 -108.5t151.5 -104.5l138 -76q141 -78 200.5 -140t59.5 -157zM752 1579q0 -11 -9 -20l-204 -263q-23 -30 -47 -30h-82
q-25 0 -48 30l-204 263q-8 8 -8 20q0 14 18 14h45q10 0 17.5 -5t11.5 -9t16 -20l193 -232l192 232q1 2 4 5q19 25 31 28q5 1 10 1h45q19 0 19 -14z" />
    <glyph glyph-name="Tcommaaccent" unicode="&#x162;" horiz-adv-x="1169" 
d="M1108 1468q0 -30 -39 -30h-438v-1399q0 -15 -10 -27t-25 -12h-21q-15 0 -24.5 11.5t-9.5 27.5v1399h-441q-39 0 -39 30v19q0 15 11 25t28 10h969q17 0 28 -10t11 -25v-19zM571 -113h50q24 0 24 -20q0 -13 -4 -19l-115 -208q-10 -21 -20 -30t-29 -9h-18q-19 0 -19 18
q0 10 2 14l88 215q14 39 41 39z" />
    <glyph glyph-name="tcommaaccent" unicode="&#x163;" horiz-adv-x="778" 
d="M696 27q0 -14 -7 -22t-27 -11q-46 -6 -107 -6q-117 0 -174 48t-57 173v807h-203q-17 0 -28 9t-11 24v20q0 31 39 31h203v211q0 16 9 27.5t25 11.5h23q14 0 23.5 -11.5t9.5 -27.5v-211h243q39 0 39 -31v-20q0 -15 -11 -24t-28 -9h-243v-807q0 -86 33 -113.5t108 -27.5h98
q43 0 43 -29v-12zM418 -113h49q25 0 25 -20q0 -11 -5 -19l-114 -208q-10 -21 -20 -30t-29 -9h-19q-18 0 -18 18q0 10 2 14l88 215q14 39 41 39z" />
    <glyph glyph-name="Tcaron" unicode="&#x164;" horiz-adv-x="1169" 
d="M1108 1468q0 -30 -39 -30h-438v-1399q0 -15 -10 -27t-25 -12h-21q-15 0 -24.5 11.5t-9.5 27.5v1399h-441q-39 0 -39 30v19q0 15 11 25t28 10h969q17 0 28 -10t11 -25v-19zM887 1939q0 -12 -8 -20l-205 -262q-14 -18 -23.5 -24.5t-23.5 -6.5h-82q-14 0 -23.5 6.5
t-23.5 24.5l-205 262q-8 8 -8 20q0 15 18 15h45q3 0 6 -0.5t6 -1.5t4.5 -2t4.5 -3.5t4.5 -3.5t4.5 -4.5t4.5 -5.5t5 -7t5.5 -7l193 -231l192 231q2 2 5.5 7t5 7t4.5 5.5t4.5 4.5t4.5 3.5t4.5 3.5t4.5 2t6 1.5t6 0.5h45q19 0 19 -15z" />
    <glyph glyph-name="tcaron" unicode="&#x165;" horiz-adv-x="1028" 
d="M696 27q0 -14 -7 -22t-27 -11q-46 -6 -107 -6q-117 0 -174 48t-57 173v807h-203q-17 0 -28 9t-11 24v20q0 31 39 31h203v211q0 16 9 27.5t25 11.5h23q14 0 23.5 -11.5t9.5 -27.5v-211h243q39 0 39 -31v-20q0 -15 -11 -24t-28 -9h-243v-807q0 -86 33 -113.5t108 -27.5h98
q43 0 43 -29v-12zM840 1092q-21 0 -21 20q0 6 4 18l125 353q14 39 41 39h39q10 0 17.5 -5.5t7.5 -15.5q0 -6 -4 -18l-140 -353q-8 -22 -16 -30t-23 -8h-30z" />
    <glyph glyph-name="Tbar" unicode="&#x166;" horiz-adv-x="1169" 
d="M1069 1018h-438v-979q0 -15 -10 -27t-25 -12h-21q-15 0 -24.5 11.5t-9.5 27.5v979h-441q-39 0 -39 31v18q0 15 11 25t28 10h441v336h-441q-39 0 -39 30v19q0 15 11 25t28 10h969q17 0 28 -10t11 -25v-19q0 -30 -39 -30h-438v-336h438q17 0 28 -10t11 -25v-18
q0 -31 -39 -31z" />
    <glyph glyph-name="tbar" unicode="&#x167;" horiz-adv-x="778" 
d="M657 729h-243v-520q0 -86 33 -113.5t108 -27.5h98q43 0 43 -29v-12q0 -14 -7 -22t-27 -11q-46 -6 -107 -6q-117 0 -174 48t-57 173v520h-203q-17 0 -28 9t-11 24v20q0 31 39 31h203v203h-203q-17 0 -28 9t-11 24v20q0 31 39 31h203v211q0 16 9 27.5t25 11.5h23
q14 0 23.5 -11.5t9.5 -27.5v-211h243q39 0 39 -31v-20q0 -15 -11 -24t-28 -9h-243v-203h243q39 0 39 -31v-20q0 -15 -11 -24t-28 -9z" />
    <glyph glyph-name="Utilde" unicode="&#x168;" horiz-adv-x="1296" 
d="M1133 541q0 -266 -119.5 -409.5t-364.5 -143.5t-365 143.5t-120 409.5v942q0 15 10 27t25 12h20q15 0 25 -12t10 -27v-942q0 -231 93 -350t302 -119q208 0 300.5 118.5t92.5 350.5v942q0 15 10 27t25 12h21q15 0 25 -12t10 -27v-942zM977 1800q0 -92 -42.5 -139
t-117.5 -47q-81 0 -137 53l-98 96q-21 21 -32 30.5t-29.5 18.5t-37.5 9q-40 0 -62 -24t-22 -85v-53q0 -19 -3.5 -26t-16.5 -7h-35q-13 0 -17.5 7.5t-4.5 25.5v53q0 92 43 139t118 47q79 0 135 -53l99 -96q57 -57 100 -57q40 0 61 23.5t21 84.5v53q0 18 4 25.5t17 7.5h34
q13 0 18 -7.5t5 -25.5v-53z" />
    <glyph glyph-name="utilde" unicode="&#x169;" horiz-adv-x="1067" 
d="M143 1061q0 16 11 27.5t28 11.5h15q15 0 25.5 -12t10.5 -27v-680q0 -164 75.5 -237.5t201.5 -73.5q148 3 324 84v907q0 15 11.5 27t26.5 12h13q15 0 27 -12t12 -27v-1020q0 -18 -10 -29.5t-27 -11.5h-17q-17 0 -26.5 11.5t-9.5 29.5v33q-175 -84 -330 -84
q-160 0 -260.5 95.5t-100.5 295.5v680zM870 1440q0 -92 -42 -139.5t-117 -47.5q-81 0 -138 54l-98 96q-21 21 -32 30.5t-29 18t-37 8.5q-40 0 -62 -24t-22 -84v-54q0 -18 -4 -25t-17 -7h-34q-13 0 -18 7t-5 25v54q0 92 43 139t119 47q79 0 135 -53l98 -96q58 -58 101 -58
q40 0 61 24t21 85v53q0 19 3.5 26t16.5 7h35q13 0 17.5 -7.5t4.5 -25.5v-53z" />
    <glyph glyph-name="Umacron" unicode="&#x16a;" horiz-adv-x="1296" 
d="M1133 541q0 -266 -119.5 -409.5t-364.5 -143.5t-365 143.5t-120 409.5v942q0 15 10 27t25 12h20q15 0 25 -12t10 -27v-942q0 -231 93 -350t302 -119q208 0 300.5 118.5t92.5 350.5v942q0 15 10 27t25 12h21q15 0 25 -12t10 -27v-942zM963 1755q0 -33 -41 -33h-545
q-41 0 -41 33v23q0 30 41 30h545q41 0 41 -30v-23z" />
    <glyph glyph-name="umacron" unicode="&#x16b;" horiz-adv-x="1067" 
d="M143 1061q0 16 11 27.5t28 11.5h15q15 0 25.5 -12t10.5 -27v-680q0 -164 75.5 -237.5t201.5 -73.5q148 3 324 84v907q0 15 11.5 27t26.5 12h13q15 0 27 -12t12 -27v-1020q0 -18 -10 -29.5t-27 -11.5h-17q-17 0 -26.5 11.5t-9.5 29.5v33q-175 -84 -330 -84
q-160 0 -260.5 95.5t-100.5 295.5v680zM848 1438q0 -33 -41 -33h-545q-41 0 -41 33v22q0 31 41 31h545q41 0 41 -31v-22z" />
    <glyph glyph-name="Ubreve" unicode="&#x16c;" horiz-adv-x="1296" 
d="M1133 541q0 -266 -119.5 -409.5t-364.5 -143.5t-365 143.5t-120 409.5v942q0 15 10 27t25 12h20q15 0 25 -12t10 -27v-942q0 -231 93 -350t302 -119q208 0 300.5 118.5t92.5 350.5v942q0 15 10 27t25 12h21q15 0 25 -12t10 -27v-942zM649 1624q132 0 211.5 81t79.5 226
q0 21 -20 21h-46q-16 0 -16 -21q0 -65 -18 -111.5t-49.5 -70.5t-66 -34.5t-75.5 -10.5t-75.5 10.5t-66 34.5t-49.5 70.5t-18 111.5q0 21 -16 21h-45q-21 0 -21 -21q0 -145 79.5 -226t211.5 -81z" />
    <glyph glyph-name="ubreve" unicode="&#x16d;" horiz-adv-x="1067" 
d="M143 1061q0 16 11 27.5t28 11.5h15q15 0 25.5 -12t10.5 -27v-680q0 -164 75.5 -237.5t201.5 -73.5q148 3 324 84v907q0 15 11.5 27t26.5 12h13q15 0 27 -12t12 -27v-1020q0 -18 -10 -29.5t-27 -11.5h-17q-17 0 -26.5 11.5t-9.5 29.5v33q-175 -84 -330 -84
q-160 0 -260.5 95.5t-100.5 295.5v680zM539 1266q132 0 211 81t79 226q0 20 -20 20h-45q-10 0 -13 -4.5t-3 -15.5q0 -65 -18 -111.5t-49.5 -70.5t-66 -34.5t-75.5 -10.5t-75.5 10.5t-66 34.5t-49.5 70.5t-18 111.5q0 20 -17 20h-45q-20 0 -20 -20q0 -145 79.5 -226
t211.5 -81z" />
    <glyph glyph-name="Uring" unicode="&#x16e;" horiz-adv-x="1296" 
d="M1133 541q0 -266 -119.5 -409.5t-364.5 -143.5t-365 143.5t-120 409.5v942q0 15 10 27t25 12h20q15 0 25 -12t10 -27v-942q0 -231 93 -350t302 -119q208 0 300.5 118.5t92.5 350.5v942q0 15 10 27t25 12h21q15 0 25 -12t10 -27v-942zM840 1798q0 -78 -56.5 -134
t-134.5 -56t-134 56t-56 134t56 134.5t134 56.5t134.5 -56.5t56.5 -134.5zM768 1798q0 50 -35 84.5t-84 34.5t-83 -34.5t-34 -84.5t34 -84.5t83 -34.5t84 34.5t35 84.5z" />
    <glyph glyph-name="uring" unicode="&#x16f;" horiz-adv-x="1067" 
d="M143 1061q0 16 11 27.5t28 11.5h15q15 0 25.5 -12t10.5 -27v-680q0 -164 75.5 -237.5t201.5 -73.5q148 3 324 84v907q0 15 11.5 27t26.5 12h13q15 0 27 -12t12 -27v-1020q0 -18 -10 -29.5t-27 -11.5h-17q-17 0 -26.5 11.5t-9.5 29.5v33q-175 -84 -330 -84
q-160 0 -260.5 95.5t-100.5 295.5v680zM725 1430q0 -78 -56 -134.5t-134 -56.5t-134.5 56.5t-56.5 134.5t56.5 134t134.5 56t134 -56t56 -134zM653 1430q0 50 -34.5 84t-83.5 34t-83 -34t-34 -84t34 -84.5t83 -34.5t83.5 34.5t34.5 84.5z" />
    <glyph glyph-name="Uhungarumlaut" unicode="&#x170;" horiz-adv-x="1296" 
d="M1133 541q0 -266 -119.5 -409.5t-364.5 -143.5t-365 143.5t-120 409.5v942q0 15 10 27t25 12h20q15 0 25 -12t10 -27v-942q0 -231 93 -350t302 -119q208 0 300.5 118.5t92.5 350.5v942q0 15 10 27t25 12h21q15 0 25 -12t10 -27v-942zM1032 1937q0 -8 -8 -16l-219 -262
q-2 -2 -5.5 -7t-5 -7t-4.5 -5.5t-4.5 -4.5t-4.5 -3.5t-4.5 -3.5t-4.5 -2t-6 -1.5t-6 -0.5h-45q-19 0 -19 14q0 12 9 21l204 262q14 18 23.5 24.5t23.5 6.5h54q22 0 22 -15zM745 1937q0 -8 -8 -16l-219 -262q-2 -2 -5.5 -7t-5 -7t-4.5 -5.5t-4.5 -4.5t-4.5 -3.5t-4.5 -3.5
t-4.5 -2t-6 -1.5t-6 -0.5h-45q-18 0 -18 14q0 13 8 21l205 262q14 18 23.5 24.5t23.5 6.5h53q22 0 22 -15z" />
    <glyph glyph-name="uhungarumlaut" unicode="&#x171;" horiz-adv-x="1067" 
d="M143 1061q0 16 11 27.5t28 11.5h15q15 0 25.5 -12t10.5 -27v-680q0 -164 75.5 -237.5t201.5 -73.5q148 3 324 84v907q0 15 11.5 27t26.5 12h13q15 0 27 -12t12 -27v-1020q0 -18 -10 -29.5t-27 -11.5h-17q-17 0 -26.5 11.5t-9.5 29.5v33q-175 -84 -330 -84
q-160 0 -260.5 95.5t-100.5 295.5v680zM918 1579q0 -7 -9 -16l-219 -263q-1 -2 -4 -5q-19 -25 -31 -28q-5 -1 -10 -1h-45q-18 0 -18 14q0 12 8 20l205 263q23 30 47 30h53q23 0 23 -14zM631 1579q0 -8 -8 -16l-220 -263q-1 -2 -4 -5q-19 -25 -31 -28q-5 -1 -10 -1h-45
q-18 0 -18 14q0 12 8 20l205 263q23 30 47 30h53q23 0 23 -14z" />
    <glyph glyph-name="Uogonek" unicode="&#x172;" horiz-adv-x="1296" 
d="M1133 541q-2 -186 -58 -310t-176 -192l-182 -102q-98 -56 -130 -86.5t-32 -73.5q0 -109 172 -109q63 0 172 25q27 5 27 -15v-20q0 -14 -4.5 -19t-18.5 -10q-87 -28 -176 -28q-130 0 -188 51.5t-58 122.5q0 67 37.5 108t134.5 97l15 8h-19q-245 0 -365 143.5t-120 409.5
v942q0 15 10 27t25 12h20q15 0 25 -12t10 -27v-942q0 -231 93 -350t302 -119q208 0 300.5 118.5t92.5 350.5v942q0 15 10 27t25 12h21q15 0 25 -12t10 -27v-942z" />
    <glyph glyph-name="uogonek" unicode="&#x173;" horiz-adv-x="1067" 
d="M834 43v31q-175 -84 -330 -84q-160 0 -260.5 95.5t-100.5 295.5v680q0 16 11 27.5t28 11.5h15q15 0 25.5 -12t10.5 -27v-680q0 -163 74.5 -237t198.5 -74h4q142 0 324 84v907q0 15 11.5 27t26.5 12h13q15 0 27 -12t12 -27v-1020q0 -27 -19 -37l-121 -67
q-98 -55 -129.5 -86t-31.5 -74q0 -109 141 -109q61 0 139 25q39 10 39 -21v-12q0 -23 -31 -35q-68 -24 -147 -24q-64 0 -108.5 15.5t-66.5 42t-31 55t-9 61.5q0 67 37.5 108t134.5 97z" />
    <glyph glyph-name="Wcircumflex" unicode="&#x174;" horiz-adv-x="1613" 
d="M1522 1475l-252 -1391q-17 -96 -99 -96q-42 0 -64 24.5t-34 67.5l-250 792q-7 25 -16 25t-16 -25l-250 -792q-26 -92 -99 -92q-81 0 -98 96l-252 1391q-3 19 6 33t27 14h20q31 0 37 -33l248 -1387q5 -30 12 -30q8 0 17 30l256 797q24 80 92 80t92 -80l256 -797
q9 -30 16 -30q8 0 13 30l248 1387q6 33 36 33h21q18 0 27 -14t6 -33zM1108 1640q0 -14 -18 -14h-46q-3 0 -6 0.5t-6 1.5t-4.5 2t-4.5 3.5t-4.5 3.5t-4.5 4.5t-4.5 5.5t-5 7t-5.5 7l-192 231l-193 -231q-2 -2 -5.5 -7t-5 -7t-4.5 -5.5t-4.5 -4.5t-4.5 -3.5t-4.5 -3.5t-4.5 -2
t-6 -1.5t-6 -0.5h-45q-18 0 -18 14q0 13 8 21l205 262q14 18 23.5 24.5t23.5 6.5h82q14 0 23.5 -6.5t23.5 -24.5l205 -262q8 -8 8 -21z" />
    <glyph glyph-name="wcircumflex" unicode="&#x175;" horiz-adv-x="1540" 
d="M1438 1051l-226 -953q-14 -60 -37 -85t-69 -25t-67 26.5t-38 89.5l-217 779q-3 10 -5.5 14t-3.5 4h-5h-5t-3.5 -4t-5.5 -14l-217 -779q-17 -63 -38 -89.5t-67 -26.5t-69 25t-37 85l-226 953q-5 19 6 34t31 15h13q11 0 20 -8.5t12 -20.5l222 -952q6 -25 11.5 -37t8 -13
t8.5 -1q13 0 27 49l221 790q20 74 88 74t88 -74l221 -790q14 -49 27 -49q6 0 8.5 1t8.5 13t12 37l221 952q3 11 12.5 20t20.5 9h12q20 0 31 -15t6 -34zM1069 1280q0 -14 -18 -14h-45q-10 0 -17.5 5t-11.5 9t-16 20l-193 232l-193 -232q-1 -2 -4 -5q-19 -25 -31 -28
q-5 -1 -10 -1h-45q-18 0 -18 14q0 12 8 20l205 263q23 30 47 30h82q24 0 47 -30l205 -263q8 -8 8 -20z" />
    <glyph glyph-name="Ycircumflex" unicode="&#x176;" horiz-adv-x="1128" 
d="M1028 1466l-323 -714q-46 -99 -97 -119v-594q0 -15 -10 -27t-25 -12h-20q-15 0 -25 12t-10 27v594q-50 19 -96 119l-324 714q-11 28 -3 42t32 14h20q9 0 18.5 -8t14.5 -17l322 -717q21 -45 32 -58t29 -13q19 0 30.5 13.5t31.5 57.5l321 717q5 9 14.5 17t18.5 8h20
q24 0 32 -14t-3 -42zM864 1640q0 -14 -18 -14h-45q-3 0 -6 0.5t-6 1.5t-4.5 2t-4.5 3.5t-4.5 3.5t-4.5 4.5t-4.5 5.5t-5 7t-5.5 7l-193 231l-192 -231q-2 -2 -5.5 -7t-5 -7t-4.5 -5.5t-4.5 -4.5t-4.5 -3.5t-4.5 -3.5t-4.5 -2t-6 -1.5t-6 -0.5h-45q-19 0 -19 14q0 13 8 21
l205 262q14 18 23.5 24.5t23.5 6.5h82q14 0 23.5 -6.5t23.5 -24.5l205 -262q8 -8 8 -21z" />
    <glyph glyph-name="ycircumflex" unicode="&#x177;" horiz-adv-x="995" 
d="M913 1049l-335 -1164q-47 -164 -118 -224t-214 -60q-53 0 -127 12q-41 7 -41 29v22q0 35 43 29q93 -12 133 -12q110 0 158.5 44.5t85.5 178.5l26 96h-28q-50 0 -77 22.5t-48 92.5l-277 936q-6 20 3.5 34.5t29.5 14.5h18q10 0 20 -9t13 -20l277 -942q8 -29 19.5 -37
t27.5 -8h47l280 989q3 11 14 19t23 8h19q20 0 27 -15t1 -36zM805 1280q0 -14 -19 -14h-45q-10 0 -17.5 5t-11.5 9t-16 20l-192 232l-193 -232q-1 -2 -4 -5q-19 -25 -31 -28q-5 -1 -10 -1h-45q-18 0 -18 14q0 12 8 20l205 263q23 30 47 30h82q24 0 47 -30l205 -263
q8 -8 8 -20z" />
    <glyph glyph-name="Ydieresis" unicode="&#x178;" horiz-adv-x="1128" 
d="M1028 1466l-323 -714q-46 -99 -97 -119v-594q0 -15 -10 -27t-25 -12h-20q-15 0 -25 12t-10 27v594q-50 19 -96 119l-324 714q-11 28 -3 42t32 14h20q9 0 18.5 -8t14.5 -17l322 -717q21 -45 32 -58t29 -13q19 0 30.5 13.5t31.5 57.5l321 717q5 9 14.5 17t18.5 8h20
q24 0 32 -14t-3 -42zM762 1706q0 -17 -11.5 -28t-27.5 -11h-12q-16 0 -27.5 11t-11.5 28v152q0 15 12 26.5t27 11.5h12q15 0 27 -11.5t12 -26.5v-152zM455 1706q0 -17 -11.5 -28t-27.5 -11h-13q-15 0 -26.5 11t-11.5 28v152q0 15 11.5 26.5t26.5 11.5h13q15 0 27 -11.5
t12 -26.5v-152z" />
    <glyph glyph-name="Zacute" unicode="&#x179;" horiz-adv-x="1218" 
d="M1096 33q0 -15 -12.5 -24t-30.5 -9h-803q-111 0 -111 88q0 38 23 74l776 1249q4 6 4 14q0 13 -16 13h-742q-17 0 -30 8t-13 22v21q0 14 13.5 23.5t29.5 9.5h742q58 0 84 -17q34 -19 34 -65q0 -32 -22 -70l-782 -1264q-4 -8 -4 -14q0 -8 14 -8h803q18 0 30.5 -8.5
t12.5 -22.5v-20zM850 1939q0 -8 -8 -16l-219 -262q-2 -2 -5.5 -7t-5 -7t-4.5 -5.5t-4.5 -4.5t-4.5 -3.5t-4.5 -3.5t-4.5 -2t-6 -1.5t-6 -0.5h-46q-18 0 -18 14q0 13 8 21l205 262q14 18 23.5 24.5t23.5 6.5h53q23 0 23 -15z" />
    <glyph glyph-name="zacute" unicode="&#x17a;" horiz-adv-x="913" 
d="M831 33q0 -15 -11.5 -24t-28.5 -9h-594q-56 0 -85.5 23.5t-29.5 60.5q0 46 24 76l613 817q8 12 8 20t-8 13.5t-21 5.5h-538q-18 0 -29.5 8t-11.5 23v20q0 15 11.5 24t29.5 9h540q50 0 82.5 -24.5t32.5 -63.5q0 -48 -33 -92l-594 -797q-12 -20 -12 -25q0 -14 21 -14h594
q40 0 40 -31v-20zM737 1579q0 -8 -8 -16l-219 -263q-1 -2 -4 -5q-19 -25 -31 -28q-5 -1 -10 -1h-45q-19 0 -19 14q0 11 9 20l204 263q23 30 48 30h53q22 0 22 -14z" />
    <glyph glyph-name="Zdotaccent" unicode="&#x17b;" horiz-adv-x="1218" 
d="M1096 33q0 -15 -12.5 -24t-30.5 -9h-803q-111 0 -111 88q0 38 23 74l776 1249q4 6 4 14q0 13 -16 13h-742q-17 0 -30 8t-13 22v21q0 14 13.5 23.5t29.5 9.5h742q58 0 84 -17q34 -19 34 -65q0 -32 -22 -70l-782 -1264q-4 -8 -4 -14q0 -8 14 -8h803q18 0 30.5 -8.5
t12.5 -22.5v-20zM655 1706q0 -17 -11.5 -28t-27.5 -11h-12q-16 0 -27.5 11t-11.5 28v152q0 15 12 26.5t27 11.5h12q15 0 27 -11.5t12 -26.5v-152z" />
    <glyph glyph-name="zdotaccent" unicode="&#x17c;" horiz-adv-x="913" 
d="M831 33q0 -15 -11.5 -24t-28.5 -9h-594q-56 0 -85.5 23.5t-29.5 60.5q0 46 24 76l613 817q8 12 8 20t-8 13.5t-21 5.5h-538q-18 0 -29.5 8t-11.5 23v20q0 15 11.5 24t29.5 9h540q50 0 82.5 -24.5t32.5 -63.5q0 -48 -33 -92l-594 -797q-12 -20 -12 -25q0 -14 21 -14h594
q40 0 40 -31v-20zM502 1352q0 -17 -11.5 -28t-27.5 -11h-12q-16 0 -27.5 11t-11.5 28v151q0 15 12 27t27 12h12q15 0 27 -12t12 -27v-151z" />
    <glyph glyph-name="Zcaron" unicode="&#x17d;" horiz-adv-x="1218" 
d="M1096 33q0 -15 -12.5 -24t-30.5 -9h-803q-111 0 -111 88q0 38 23 74l776 1249q4 6 4 14q0 13 -16 13h-742q-17 0 -30 8t-13 22v21q0 14 13.5 23.5t29.5 9.5h742q58 0 84 -17q34 -19 34 -65q0 -32 -22 -70l-782 -1264q-4 -8 -4 -14q0 -8 14 -8h803q18 0 30.5 -8.5
t12.5 -22.5v-20zM909 1939q0 -12 -8 -20l-205 -262q-14 -18 -23.5 -24.5t-23.5 -6.5h-82q-14 0 -23.5 6.5t-23.5 24.5l-205 262q-8 8 -8 20q0 15 19 15h45q3 0 6 -0.5t6 -1.5t4.5 -2t4.5 -3.5t4.5 -3.5t4.5 -4.5t4.5 -5.5t5 -7t5.5 -7l192 -231l193 231q2 2 5.5 7t5 7
t4.5 5.5t4.5 4.5t4.5 3.5t4.5 3.5t4.5 2t6 1.5t6 0.5h45q18 0 18 -15z" />
    <glyph glyph-name="zcaron" unicode="&#x17e;" horiz-adv-x="913" 
d="M831 33q0 -15 -11.5 -24t-28.5 -9h-586q-123 0 -123 84q0 45 37 92l600 801q8 11 8 20q0 19 -29 19h-538q-18 0 -29.5 8t-11.5 23v20q0 15 11.5 24t29.5 9h536q119 0 119 -88q0 -48 -33 -92l-594 -797q-10 -15 -10 -25q0 -14 19 -14h594q40 0 40 -31v-20zM758 1579
q0 -12 -8 -20l-205 -263q-23 -30 -47 -30h-82q-24 0 -47 30l-205 263q-8 8 -8 20q0 14 18 14h45q10 0 17.5 -5t11.5 -9t16 -20l193 -232l192 232q1 2 4 5q19 25 31 28q5 1 10 1h45q19 0 19 -14z" />
    <glyph glyph-name="florin" unicode="&#x192;" 
d="M1042 1499v-6l-2 -14q-3 -27 -47 -27h-102q-74 0 -112 -36t-50 -126l-61 -446h305q15 0 24 -8.5t9 -22.5v-4l-2 -18q-2 -15 -14 -25t-29 -10h-306l-106 -768q-18 -128 -84.5 -185t-179.5 -57q-65 0 -105 6q-35 5 -35 27v6l2 14q3 27 48 27h102q74 0 112 36t50 126
l106 768h-264q-15 0 -25 8.5t-10 21.5v5l2 18q1 15 14.5 25t30.5 10h265l61 446q18 128 84.5 185t179.5 57q64 0 105 -6q34 -5 34 -27z" />
    <glyph glyph-name="AEacute" unicode="&#x1fc;" horiz-adv-x="1800" 
d="M1683 35q0 -15 -10.5 -25t-27.5 -10h-607q-89 0 -129.5 40t-40.5 126v409h-549l-167 -555q-3 -10 -13 -18t-20 -8h-27q-20 0 -27.5 14.5t-1.5 36.5l420 1376q14 47 48.5 74t84.5 27h1029q17 0 27.5 -10t10.5 -25v-17q0 -32 -38 -32h-687v-596h687q17 0 27.5 -9t10.5 -24
v-21q0 -15 -10.5 -24.5t-27.5 -9.5h-687v-588q0 -45 15.5 -63.5t64.5 -18.5h607q17 0 27.5 -9t10.5 -24v-16zM868 666v772h-252q-37 0 -47 -39l-225 -733h524zM1350 1939q0 -7 -9 -16l-219 -262q-2 -2 -5.5 -7t-5 -7t-4.5 -5.5t-4.5 -4.5t-4.5 -3.5t-4.5 -3.5t-4.5 -2
t-6 -1.5t-6 -0.5h-45q-18 0 -18 14q0 13 8 21l205 262q14 18 23.5 24.5t23.5 6.5h53q23 0 23 -15z" />
    <glyph glyph-name="aeacute" unicode="&#x1fd;" horiz-adv-x="1699" 
d="M1587 567q0 -17 -11.5 -28t-27.5 -11h-692v-110q0 -131 21.5 -188t66.5 -91q94 -71 283 -71q133 0 303 34q2 0 6 1t6 1q31 0 31 -28v-15q0 -17 -8 -25.5t-31 -12.5q-172 -35 -307 -35q-323 0 -420 184q-29 -40 -55.5 -67t-71.5 -57t-111.5 -45t-152.5 -15q-49 0 -92 9.5
t-84.5 33t-71.5 60t-48 94.5t-18 132v27q0 108 48.5 176t160.5 103.5t297 35.5h158v74q0 163 -55.5 230t-202.5 67q-118 0 -291 -18h-8q-39 0 -39 30v13q0 31 47 37q155 18 291 18q140 0 217 -51t106 -148q110 199 349 199q205 0 306 -130t101 -357v-56zM1497 610v13
q0 201 -74.5 304t-242.5 103q-164 0 -244 -108t-80 -299v-13h641zM766 418v160h-158q-232 0 -323.5 -51.5t-91.5 -182.5v-27q0 -249 223 -249q183 0 266.5 81t83.5 269zM1118 1579q0 -8 -8 -16l-219 -263q-1 -2 -4 -5q-19 -25 -31 -28q-5 -1 -10 -1h-45q-19 0 -19 14
q0 11 9 20l204 263q23 30 47 30h54q22 0 22 -14z" />
    <glyph glyph-name="Oslashacute" unicode="&#x1fe;" horiz-adv-x="1294" 
d="M1221 1499q0 -5 -7 -16l-133 -185q90 -158 90 -411v-254q0 -167 -38.5 -292.5t-109.5 -202t-165 -113.5t-211 -37q-251 0 -387 164l-90 -125q-29 -39 -53 -39h-21q-22 0 -22 22q0 8 6 17l135 188q-92 156 -92 418v254q0 167 38.5 292.5t109.5 202t165 113.5t211 37
q256 0 391 -168l86 119q29 39 54 39h20q10 0 16.5 -7t6.5 -16zM985 1288q-109 158 -338 158q-77 0 -140.5 -17.5t-119 -59t-93.5 -105t-59.5 -159t-21.5 -218.5v-254q0 -209 59 -336zM1081 633v254q0 204 -57 330l-711 -990q109 -153 334 -153q77 0 140.5 17.5t119 59
t93.5 105t59.5 159t21.5 218.5zM920 1939q0 -7 -9 -16l-219 -262q-2 -2 -5.5 -7t-5 -7t-4.5 -5.5t-4.5 -4.5t-4.5 -3.5t-4.5 -3.5t-4.5 -2t-6 -1.5t-6 -0.5h-45q-18 0 -18 14q0 13 8 21l205 262q14 18 23.5 24.5t23.5 6.5h53q23 0 23 -15z" />
    <glyph glyph-name="oslashacute" unicode="&#x1ff;" horiz-adv-x="1069" 
d="M1018 1147q0 -15 -8 -23l-133 -178q79 -122 79 -325v-144q0 -235 -106.5 -362t-314.5 -127q-185 0 -291 100l-103 -139q-16 -21 -32 -21h-41q-17 0 -17 17q0 11 8 22l136 183q-82 127 -82 327v144q0 235 107 362t315 127q185 0 292 -104l101 137q16 20 33 20h40
q17 0 17 -16zM776 938q-83 92 -241 92q-332 0 -332 -409v-144q0 -158 47 -252zM866 477v144q0 151 -45 247l-526 -710q84 -90 240 -90q331 0 331 409zM809 1579q0 -8 -8 -16l-219 -263q-1 -2 -4 -5q-19 -25 -31 -28q-5 -1 -10 -1h-45q-19 0 -19 14q0 12 8 20l205 263
q23 30 47 30h53q23 0 23 -14z" />
    <glyph glyph-name="uni0218" unicode="&#x218;" horiz-adv-x="1085" 
d="M524 -113h49q25 0 25 -20q0 -13 -4 -19l-115 -208q-10 -21 -20 -30t-29 -9h-18q-19 0 -19 18q0 10 2 14l88 215q14 39 41 39zM973 379q0 -391 -475 -391q-173 0 -299 20q-30 5 -43 13.5t-13 29.5v8q0 39 47 35q165 -20 308 -20q90 0 158 16t110 42.5t68 66.5t35.5 83
t9.5 97q0 45 -12 80.5t-31 63.5t-62 61.5t-83.5 60t-117.5 74.5q-7 4 -10 6l-129 80q-66 41 -106 68.5t-86 67.5t-70.5 77t-41.5 87.5t-17 108.5q0 91 40 155.5t111 98.5t151 49t177 15q145 0 285 -19q31 -3 43 -11.5t12 -28.5v-11q0 -22 -15.5 -28.5t-48.5 -3.5
q-144 16 -278 16q-199 0 -292 -58t-93 -174q0 -53 16 -96t55 -82.5t84 -71.5t121 -79l131 -80q80 -48 131.5 -82.5t99.5 -75.5t73.5 -79.5t41 -85.5t15.5 -103z" />
    <glyph glyph-name="uni0219" unicode="&#x219;" horiz-adv-x="901" 
d="M799 272q0 -79 -28 -136t-79 -88.5t-112 -45.5t-136 -14q-149 0 -297 28q-45 9 -45 33v23q0 35 45 28q196 -32 302 -32q59 0 103 9t81 30.5t56.5 63t19.5 101.5q0 63 -44 108t-173 116l-132 71q-65 35 -105 62t-75 62t-51 75.5t-16 91.5q0 55 17 99t46 72t70 46.5
t85 26.5t95 8q136 0 293 -18q43 -6 43 -35v-17q0 -36 -43 -32q-194 22 -285 22q-112 0 -171.5 -36t-59.5 -136q0 -63 46.5 -108.5t151.5 -104.5l138 -76q141 -78 200.5 -140t59.5 -157zM434 -113h49q25 0 25 -20q0 -13 -4 -19l-115 -208q-10 -21 -20 -30t-29 -9h-18
q-19 0 -19 18q0 10 2 14l88 215q14 39 41 39z" />
    <glyph glyph-name="uni021A" unicode="&#x21a;" horiz-adv-x="1169" 
d="M1108 1468q0 -30 -39 -30h-438v-1399q0 -15 -10 -27t-25 -12h-21q-15 0 -24.5 11.5t-9.5 27.5v1399h-441q-39 0 -39 30v19q0 15 11 25t28 10h969q17 0 28 -10t11 -25v-19zM571 -113h50q24 0 24 -20q0 -13 -4 -19l-115 -208q-10 -21 -20 -30t-29 -9h-18q-19 0 -19 18
q0 10 2 14l88 215q14 39 41 39z" />
    <glyph glyph-name="uni021B" unicode="&#x21b;" horiz-adv-x="778" 
d="M696 27q0 -14 -7 -22t-27 -11q-46 -6 -107 -6q-117 0 -174 48t-57 173v807h-203q-17 0 -28 9t-11 24v20q0 31 39 31h203v211q0 16 9 27.5t25 11.5h23q14 0 23.5 -11.5t9.5 -27.5v-211h243q39 0 39 -31v-20q0 -15 -11 -24t-28 -9h-243v-807q0 -86 33 -113.5t108 -27.5h98
q43 0 43 -29v-12zM418 -113h49q25 0 25 -20q0 -11 -5 -19l-114 -208q-10 -21 -20 -30t-29 -9h-19q-18 0 -18 18q0 10 2 14l88 215q14 39 41 39z" />
    <glyph glyph-name="circumflex" unicode="&#x2c6;" horiz-adv-x="675" 
d="M639 1280q0 -14 -18 -14h-46q-10 0 -17.5 5t-11.5 9t-16 20l-192 232l-193 -232q-1 -2 -4 -5q-19 -25 -31 -28q-5 -1 -10 -1h-45q-18 0 -18 14q0 12 8 20l205 263q23 30 47 30h82q24 0 47 -30l205 -263q8 -8 8 -20z" />
    <glyph glyph-name="caron" unicode="&#x2c7;" horiz-adv-x="675" 
d="M639 1579q0 -12 -8 -20l-205 -263q-23 -30 -47 -30h-82q-24 0 -47 30l-205 263q-8 8 -8 20q0 14 18 14h45q10 0 17.5 -5t11.5 -9t16 -20l193 -232l192 232q1 2 4 5q19 25 31 28q5 1 10 1h46q18 0 18 -14z" />
    <glyph glyph-name="uni02C9" unicode="&#x2c9;" horiz-adv-x="675" 
d="M651 1442q0 -33 -41 -33h-544q-41 0 -41 33v22q0 31 41 31h544q41 0 41 -31v-22z" />
    <glyph glyph-name="breve" unicode="&#x2d8;" horiz-adv-x="675" 
d="M338 1266q132 0 211.5 81t79.5 226q0 20 -21 20h-45q-10 0 -13 -4.5t-3 -15.5q0 -65 -18 -111.5t-49.5 -70.5t-66 -34.5t-75.5 -10.5t-75.5 10.5t-66 34.5t-49.5 70.5t-18 111.5q0 11 -3 15.5t-13 4.5h-45q-21 0 -21 -20q0 -145 79.5 -226t211.5 -81z" />
    <glyph glyph-name="dotaccent" unicode="&#x2d9;" horiz-adv-x="675" 
d="M383 1352q0 -17 -11.5 -28t-27.5 -11h-12q-16 0 -27.5 11t-11.5 28v151q0 15 12 27t27 12h12q15 0 27 -12t12 -27v-151z" />
    <glyph glyph-name="ring" unicode="&#x2da;" horiz-adv-x="675" 
d="M528 1430q0 -78 -56 -134.5t-134 -56.5t-134.5 56.5t-56.5 134.5t56.5 134t134.5 56t134 -56t56 -134zM457 1430q0 49 -34.5 83.5t-84.5 34.5q-49 0 -83 -34t-34 -84t34 -84.5t83 -34.5q50 0 84.5 34.5t34.5 84.5z" />
    <glyph glyph-name="ogonek" unicode="&#x2db;" horiz-adv-x="675" 
d="M586 -348q0 -17 -23 -23q-88 -28 -176 -28q-130 0 -188 51.5t-58 122.5q0 67 37.5 108t134.5 97l138 77q12 6 24 6h80q14 0 14 -10q0 -9 -10 -14l-182 -102q-98 -56 -130 -86.5t-32 -73.5q0 -109 172 -109q63 0 172 25q12 4 16 4q11 0 11 -14v-31z" />
    <glyph glyph-name="tilde" unicode="&#x2dc;" horiz-adv-x="1005" 
d="M817 1473q0 -92 -42.5 -139.5t-117.5 -47.5q-81 0 -137 53l-98 97q-21 21 -32 30.5t-29 18t-37 8.5q-40 0 -62 -24t-22 -85v-53q0 -18 -4 -25.5t-17 -7.5h-35q-13 0 -17.5 7.5t-4.5 25.5v53q0 92 43.5 139.5t118.5 47.5q79 0 135 -53l98 -97q57 -57 100 -57q40 0 61 24
t21 85v53q0 18 4 25.5t17 7.5h35q13 0 17.5 -7.5t4.5 -25.5v-53z" />
    <glyph glyph-name="hungarumlaut" unicode="&#x2dd;" horiz-adv-x="675" 
d="M752 1579q0 -7 -9 -16l-219 -263q-1 -2 -4 -5q-19 -25 -31 -28q-5 -1 -10 -1h-45q-18 0 -18 14q0 12 8 20l205 263q23 30 47 30h53q23 0 23 -14zM465 1579q0 -8 -8 -16l-219 -263q-1 -2 -4 -5q-19 -25 -31 -28q-5 -1 -10 -1h-46q-18 0 -18 14q0 12 8 20l205 263
q23 30 47 30h53q23 0 23 -14z" />
    <glyph glyph-name="uni03A9" unicode="&#x3a9;" horiz-adv-x="1261" 
d="M631 1532q117 0 211 -37t165 -113.5t109.5 -202t38.5 -292.5v-49q0 -253 -87 -405.5t-241 -207.5v-141h303q17 0 28 -9t11 -24v-16q0 -15 -11 -25t-28 -10h-346q-22 0 -33.5 11t-12.5 21l-1 11v215q0 17 5 25t24 12q299 78 299 543v49q0 123 -21.5 218.5t-59.5 159
t-93.5 105t-119 59t-140.5 17.5t-140.5 -17.5t-119 -59t-93.5 -105t-59.5 -159t-21.5 -218.5v-49q0 -465 299 -543q19 -4 23.5 -12t4.5 -25v-215q0 -5 -1 -12t-12.5 -19t-33.5 -12h-346q-17 0 -28 10t-11 25v16q0 15 11 24t28 9h303v141q-154 55 -241 207.5t-87 405.5v49
q0 167 38.5 292.5t110 202t165.5 113.5t211 37z" />
    <glyph glyph-name="uni03BC" unicode="&#x3bc;" horiz-adv-x="1067" 
d="M924 78q0 -11 -8.5 -22.5t-18.5 -14.5q-161 -53 -350 -53q-209 0 -314 118v-466q0 -16 -9.5 -27.5t-24.5 -11.5h-21q-15 0 -25 12t-10 27v1421q0 16 11 27.5t28 11.5h15q15 0 25.5 -12t10.5 -27v-682q0 -311 314 -311q158 0 287 38v955q0 15 11.5 27t26.5 12h13
q15 0 27 -12t12 -27v-983z" />
    <glyph glyph-name="pi" unicode="&#x3c0;" horiz-adv-x="1189" 
d="M961 1032h141q39 0 39 39v10q0 39 -39 39h-1022q-16 0 -27.5 -10t-11.5 -29v-10q0 -39 39 -39h141v-993q0 -39 39 -39h12q39 0 39 39v993h559v-758v-52t1.5 -47t4.5 -45.5t8.5 -38.5t13.5 -35t20 -27t28 -22t37.5 -12t48.5 -5q61 0 89 8t28 33v6q0 20 -11 26.5t-38 6.5
h-47q-23 0 -38.5 3t-26 15.5t-16 23t-8 40.5t-3 51t-0.5 71v758z" />
    <glyph glyph-name="Wgrave" unicode="&#x1e80;" horiz-adv-x="1613" 
d="M1522 1475l-252 -1391q-17 -96 -99 -96q-42 0 -64 24.5t-34 67.5l-250 792q-7 25 -16 25t-16 -25l-250 -792q-26 -92 -99 -92q-81 0 -98 96l-252 1391q-3 19 6 33t27 14h20q31 0 37 -33l248 -1387q5 -30 12 -30q8 0 17 30l256 797q24 80 92 80t92 -80l256 -797
q9 -30 16 -30q8 0 13 30l248 1387q6 33 36 33h21q18 0 27 -14t6 -33zM920 1640q0 -14 -19 -14h-45q-3 0 -6 0.5t-6 1.5t-4.5 2t-4.5 3.5t-4.5 3.5t-4.5 4.5t-4.5 5.5t-5 7t-5.5 7l-219 262q-8 8 -8 16q0 15 22 15h53q24 0 48 -31l204 -262q9 -9 9 -21z" />
    <glyph glyph-name="wgrave" unicode="&#x1e81;" horiz-adv-x="1540" 
d="M1438 1051l-226 -953q-14 -60 -37 -85t-69 -25t-67 26.5t-38 89.5l-217 779q-3 10 -5.5 14t-3.5 4h-5h-5t-3.5 -4t-5.5 -14l-217 -779q-17 -63 -38 -89.5t-67 -26.5t-69 25t-37 85l-226 953q-5 19 6 34t31 15h13q11 0 20 -8.5t12 -20.5l222 -952q6 -25 11.5 -37t8 -13
t8.5 -1q13 0 27 49l221 790q20 74 88 74t88 -74l221 -790q14 -49 27 -49q6 0 8.5 1t8.5 13t12 37l221 952q3 11 12.5 20t20.5 9h12q20 0 31 -15t6 -34zM883 1280q0 -14 -19 -14h-45q-10 0 -17.5 5t-11.5 9t-16 20l-219 263q-8 8 -8 16q0 14 22 14h54q24 0 47 -30l204 -263
q9 -9 9 -20z" />
    <glyph glyph-name="Wacute" unicode="&#x1e82;" horiz-adv-x="1613" 
d="M1522 1475l-252 -1391q-17 -96 -99 -96q-42 0 -64 24.5t-34 67.5l-250 792q-7 25 -16 25t-16 -25l-250 -792q-26 -92 -99 -92q-81 0 -98 96l-252 1391q-3 19 6 33t27 14h20q31 0 37 -33l248 -1387q5 -30 12 -30q8 0 17 30l256 797q24 80 92 80t92 -80l256 -797
q9 -30 16 -30q8 0 13 30l248 1387q6 33 36 33h21q18 0 27 -14t6 -33zM1030 1939q0 -8 -8 -16l-219 -262q-2 -2 -5.5 -7t-5 -7t-4.5 -5.5t-4.5 -4.5t-4.5 -3.5t-4.5 -3.5t-4.5 -2t-6 -1.5t-6 -0.5h-45q-19 0 -19 14q0 13 8 21l205 262q14 18 23.5 24.5t23.5 6.5h54
q22 0 22 -15z" />
    <glyph glyph-name="wacute" unicode="&#x1e83;" horiz-adv-x="1540" 
d="M1438 1051l-226 -953q-14 -60 -37 -85t-69 -25t-67 26.5t-38 89.5l-217 779q-3 10 -5.5 14t-3.5 4h-5h-5t-3.5 -4t-5.5 -14l-217 -779q-17 -63 -38 -89.5t-67 -26.5t-69 25t-37 85l-226 953q-5 19 6 34t31 15h13q11 0 20 -8.5t12 -20.5l222 -952q6 -25 11.5 -37t8 -13
t8.5 -1q13 0 27 49l221 790q20 74 88 74t88 -74l221 -790q14 -49 27 -49q6 0 8.5 1t8.5 13t12 37l221 952q3 11 12.5 20t20.5 9h12q20 0 31 -15t6 -34zM1012 1579q0 -8 -8 -16l-220 -263q-1 -2 -4 -5q-19 -25 -31 -28q-5 -1 -10 -1h-45q-18 0 -18 14q0 12 8 20l205 263
q23 30 47 30h53q23 0 23 -14z" />
    <glyph glyph-name="Wdieresis" unicode="&#x1e84;" horiz-adv-x="1613" 
d="M1522 1475l-252 -1391q-17 -96 -99 -96q-42 0 -64 24.5t-34 67.5l-250 792q-7 25 -16 25t-16 -25l-250 -792q-26 -92 -99 -92q-81 0 -98 96l-252 1391q-3 19 6 33t27 14h20q31 0 37 -33l248 -1387q5 -30 12 -30q8 0 17 30l256 797q24 80 92 80t92 -80l256 -797
q9 -30 16 -30q8 0 13 30l248 1387q6 33 36 33h21q18 0 27 -14t6 -33zM1006 1706q0 -17 -11.5 -28t-27.5 -11h-13q-16 0 -27.5 11t-11.5 28v152q0 15 12 26.5t27 11.5h13q15 0 27 -11.5t12 -26.5v-152zM698 1706q0 -17 -11.5 -28t-27.5 -11h-12q-16 0 -27.5 11t-11.5 28v152
q0 15 12 26.5t27 11.5h12q15 0 27 -11.5t12 -26.5v-152z" />
    <glyph glyph-name="wdieresis" unicode="&#x1e85;" horiz-adv-x="1540" 
d="M1438 1051l-226 -953q-14 -60 -37 -85t-69 -25t-67 26.5t-38 89.5l-217 779q-3 10 -5.5 14t-3.5 4h-5h-5t-3.5 -4t-5.5 -14l-217 -779q-17 -63 -38 -89.5t-67 -26.5t-69 25t-37 85l-226 953q-5 19 6 34t31 15h13q11 0 20 -8.5t12 -20.5l222 -952q6 -25 11.5 -37t8 -13
t8.5 -1q13 0 27 49l221 790q20 74 88 74t88 -74l221 -790q14 -49 27 -49q6 0 8.5 1t8.5 13t12 37l221 952q3 11 12.5 20t20.5 9h12q20 0 31 -15t6 -34zM967 1354q0 -17 -11.5 -28t-27.5 -11h-13q-15 0 -26.5 11t-11.5 28v151q0 15 11.5 27t26.5 12h13q15 0 27 -12t12 -27
v-151zM659 1354q0 -17 -11.5 -28t-26.5 -11h-13q-16 0 -27.5 11t-11.5 28v151q0 15 12 27t27 12h13q15 0 26.5 -12t11.5 -27v-151z" />
    <glyph glyph-name="Ygrave" unicode="&#x1ef2;" horiz-adv-x="1128" 
d="M1028 1466l-323 -714q-46 -99 -97 -119v-594q0 -15 -10 -27t-25 -12h-20q-15 0 -25 12t-10 27v594q-50 19 -96 119l-324 714q-11 28 -3 42t32 14h20q9 0 18.5 -8t14.5 -17l322 -717q21 -45 32 -58t29 -13q19 0 30.5 13.5t31.5 57.5l321 717q5 9 14.5 17t18.5 8h20
q24 0 32 -14t-3 -42zM657 1640q0 -14 -18 -14h-45q-3 0 -6 0.5t-6 1.5t-4.5 2t-4.5 3.5t-4.5 3.5t-4.5 4.5t-4.5 5.5t-5 7t-5.5 7l-219 262q-8 8 -8 16q0 15 22 15h53q14 0 23.5 -6.5t23.5 -24.5l205 -262q8 -8 8 -21z" />
    <glyph glyph-name="ygrave" unicode="&#x1ef3;" horiz-adv-x="995" 
d="M913 1049l-335 -1164q-47 -164 -118 -224t-214 -60q-53 0 -127 12q-41 7 -41 29v22q0 35 43 29q93 -12 133 -12q110 0 158.5 44.5t85.5 178.5l26 96h-28q-50 0 -77 22.5t-48 92.5l-277 936q-6 20 3.5 34.5t29.5 14.5h18q10 0 20 -9t13 -20l277 -942q8 -29 19.5 -37
t27.5 -8h47l280 989q3 11 14 19t23 8h19q20 0 27 -15t1 -36zM575 1280q0 -14 -18 -14h-45q-10 0 -17.5 5t-11.5 9t-16 20l-219 263q-8 8 -8 16q0 14 22 14h53q24 0 47 -30l205 -263q8 -8 8 -20z" />
    <glyph glyph-name="endash" unicode="&#x2013;" horiz-adv-x="737" 
d="M768 559q0 -15 -11 -24t-28 -9h-721q-17 0 -28 9t-11 24v16q0 15 11 26t28 11h721q17 0 28 -11t11 -26v-16z" />
    <glyph glyph-name="emdash" unicode="&#x2014;" horiz-adv-x="1439" 
d="M1470 559q0 -15 -10.5 -24t-27.5 -9h-1424q-17 0 -28 9t-11 24v16q0 15 11 26t28 11h1424q17 0 27.5 -11t10.5 -26v-16z" />
    <glyph glyph-name="quoteleft" unicode="&#x2018;" horiz-adv-x="348" 
d="M268 1499q0 -12 -2 -18l-84 -353q-8 -38 -41 -38h-39q-22 0 -22 22q0 10 2 16l98 353q6 21 15 30t24 9h31q18 0 18 -21z" />
    <glyph glyph-name="quoteright" unicode="&#x2019;" horiz-adv-x="348" 
d="M268 1499q0 -10 -2 -16l-98 -353q-10 -38 -39 -38h-31q-18 0 -18 20q0 12 2 18l84 353q8 39 41 39h39q22 0 22 -23z" />
    <glyph glyph-name="quotesinglbase" unicode="&#x201a;" horiz-adv-x="348" 
d="M268 195q0 -11 -2 -17l-98 -352q-6 -21 -15 -30t-24 -9h-31q-18 0 -18 20q0 13 2 19l84 352q8 39 41 39h39q22 0 22 -22z" />
    <glyph glyph-name="quotedblleft" unicode="&#x201c;" horiz-adv-x="604" 
d="M524 1501q0 -12 -2 -18l-84 -353q-8 -38 -41 -38h-39q-22 0 -22 22q0 10 2 16l98 353q6 21 15 30t24 9h31q18 0 18 -21zM268 1501q0 -12 -2 -18l-84 -353q-8 -38 -41 -38h-39q-22 0 -22 22q0 10 2 16l98 353q6 21 15 30t24 9h31q18 0 18 -21z" />
    <glyph glyph-name="quotedblright" unicode="&#x201d;" horiz-adv-x="604" 
d="M524 1499q0 -10 -2 -16l-98 -353q-10 -38 -39 -38h-31q-18 0 -18 20q0 12 2 18l84 353q8 39 41 39h39q22 0 22 -23zM268 1499q0 -10 -2 -16l-98 -353q-10 -38 -39 -38h-31q-18 0 -18 20q0 12 2 18l84 353q8 39 41 39h39q22 0 22 -23z" />
    <glyph glyph-name="quotedblbase" unicode="&#x201e;" horiz-adv-x="604" 
d="M524 195q0 -11 -2 -17l-98 -352q-6 -21 -15 -30t-24 -9h-31q-18 0 -18 20q0 13 2 19l84 352q8 39 41 39h39q22 0 22 -22zM268 195q0 -11 -2 -17l-98 -352q-6 -21 -15 -30t-24 -9h-31q-18 0 -18 20q0 13 2 19l84 352q8 39 41 39h39q22 0 22 -22z" />
    <glyph glyph-name="dagger" unicode="&#x2020;" horiz-adv-x="778" 
d="M696 1049q0 -15 -11 -24t-28 -9h-243v-987q0 -41 -33 -41h-25q-32 0 -32 41v987h-203q-17 0 -28 9t-11 24v20q0 31 39 31h203v383q0 16 9 27.5t25 11.5h23q14 0 23.5 -11.5t9.5 -27.5v-383h243q39 0 39 -31v-20z" />
    <glyph glyph-name="daggerdbl" unicode="&#x2021;" horiz-adv-x="778" 
d="M696 618q0 -15 -11 -23.5t-28 -8.5h-243v-557q0 -41 -33 -41h-25q-32 0 -32 41v557h-203q-18 0 -28.5 8.5t-10.5 23.5v21q0 31 39 31h203v346h-203q-17 0 -28 9t-11 24v20q0 31 39 31h203v420q0 16 9 27.5t25 11.5h23q14 0 23.5 -11.5t9.5 -27.5v-420h243q39 0 39 -31
v-20q0 -15 -11 -24t-28 -9h-243v-346h243q39 0 39 -31v-21z" />
    <glyph glyph-name="bullet" unicode="&#x2022;" horiz-adv-x="856" 
d="M743 752q0 -131 -92.5 -223.5t-222.5 -92.5t-222.5 92.5t-92.5 223.5q0 130 92.5 222.5t222.5 92.5t222.5 -92.5t92.5 -222.5z" />
    <glyph glyph-name="ellipsis" unicode="&#x2026;" horiz-adv-x="1040" 
d="M913 27q0 -17 -11.5 -28t-27.5 -11h-12q-16 0 -27.5 11t-11.5 28v151q0 15 12 27t27 12h12q15 0 27 -12t12 -27v-151zM565 27q0 -17 -11.5 -28t-27.5 -11h-12q-16 0 -27.5 11t-11.5 28v151q0 15 12 27t27 12h12q15 0 27 -12t12 -27v-151zM217 27q0 -17 -11.5 -28
t-27.5 -11h-12q-16 0 -27.5 11t-11.5 28v151q0 15 12 27t27 12h12q15 0 27 -12t12 -27v-151z" />
    <glyph glyph-name="perthousand" unicode="&#x2030;" horiz-adv-x="2226" 
d="M2103 307q0 -158 -67.5 -238.5t-190.5 -80.5t-191.5 80.5t-68.5 238.5v213q0 158 68.5 238t191.5 80t190.5 -80t67.5 -238v-213zM1427 307q0 -158 -67.5 -238.5t-190.5 -80.5t-191.5 80.5t-68.5 238.5v213q0 158 68.5 238t191.5 80t190.5 -80t67.5 -238v-213zM1264 1511
q0 -9 -13 -28l-860 -1456q-13 -23 -21 -31t-22 -8h-55q-14 0 -14 10q0 11 12 29l860 1456q13 23 21 31t22 8h53q17 0 17 -11zM641 1001q0 -158 -67.5 -238.5t-190.5 -80.5t-191.5 80.5t-68.5 238.5v213q0 158 68.5 238t191.5 80t190.5 -80t67.5 -238v-213zM2023 307v213
q0 240 -178 240q-180 0 -180 -240v-213q0 -239 180 -239q178 0 178 239zM1348 307v213q0 240 -179 240q-180 0 -180 -240v-213q0 -239 180 -239q179 0 179 239zM561 1001v213q0 240 -178 240q-180 0 -180 -240v-213q0 -239 180 -239q178 0 178 239z" />
    <glyph glyph-name="guilsinglleft" unicode="&#x2039;" horiz-adv-x="624" 
d="M516 188q0 -12 -10 -22l-14 -14q-9 -9 -21 -9q-14 0 -33 15l-364 334q-29 26 -29 59q0 30 29 59l364 334q18 14 33 14q13 0 21 -8l14 -14q10 -10 10 -23q0 -17 -16 -30l-363 -332l363 -332q16 -13 16 -31z" />
    <glyph glyph-name="guilsinglright" unicode="&#x203a;" horiz-adv-x="624" 
d="M580 551q0 -33 -29 -59l-365 -334q-19 -15 -32 -15q-12 0 -21 9l-14 14q-10 10 -10 22q0 18 16 31l362 332l-362 332q-16 13 -16 30q0 13 10 23l14 14q8 8 21 8q14 0 32 -14l365 -334q29 -29 29 -59z" />
    <glyph glyph-name="fraction" unicode="&#x2044;" horiz-adv-x="622" 
d="M805 1511q0 -10 -12 -28l-856 -1456q-13 -23 -21 -31t-22 -8h-56q-16 0 -16 12t10 27l856 1456q13 23 21 31t22 8h57q17 0 17 -11z" />
    <glyph glyph-name="n.superior" unicode="&#x207f;" horiz-adv-x="587" 
d="M141 1192v-485q0 -13 -7.5 -22t-20.5 -9h-13q-26 0 -26 31v553q0 32 28 32h11q28 0 28 -32v-11q83 45 168 45q99 0 152 -50.5t53 -168.5v-368q0 -13 -8 -22t-21 -9h-8q-13 0 -22 9.5t-9 21.5v368q0 93 -34 126.5t-105 33.5q-78 0 -166 -43z" />
    <glyph glyph-name="franc" unicode="&#x20a3;" horiz-adv-x="1060" 
d="M979 788q0 -15 -11 -24.5t-28 -9.5h-686v-281h252q17 0 28 -9t11 -24v-20q0 -15 -11 -25t-28 -10h-252v-346q0 -15 -10 -27t-25 -12h-20q-15 0 -25 12t-10 27v346h-125q-17 0 -28 10t-11 25v20q0 15 11 24t28 9h125v819q0 124 62.5 177t185.5 53h528q17 0 28 -10t11 -25
v-17q0 -15 -10.5 -23.5t-28.5 -8.5h-528q-82 0 -120 -28.5t-38 -117.5v-450h686q17 0 28 -9t11 -24v-21z" />
    <glyph glyph-name="lira" unicode="&#x20a4;" 
d="M883 479h-498v-133q0 -147 -66 -262h685q40 0 40 -29v-22q0 -33 -40 -33h-762q-21 0 -31 12.5t-10 28.5q0 13 6 22q44 75 64 136t20 147v133h-109q-17 0 -27 10t-10 25v18q0 15 12 25t29 10h105v219h-109q-17 0 -27 10t-10 25v19q0 15 12 24.5t29 9.5h105v121
q0 130 20 225t66 167t126 108.5t195 36.5q143 0 303 -19q23 -3 31 -10t8 -22v-17q0 -16 -6 -23t-24 -7h-13q-144 16 -299 16q-96 0 -159.5 -31t-96.5 -94.5t-45 -140.5t-12 -189v-121h502q17 0 27 -9.5t10 -24.5v-19q0 -15 -12 -25t-29 -10h-498v-219h502q17 0 27 -10
t10 -25v-18q0 -15 -12 -25t-29 -10z" />
    <glyph glyph-name="peseta" unicode="&#x20a7;" horiz-adv-x="2734" 
d="M1034 1081q0 -233 -142 -335.5t-415 -102.5q-109 0 -223 8v-612q0 -15 -10 -27t-25 -12h-20q-15 0 -25 12t-10 27v1444q0 14 11 26t24 13q180 10 278 10q557 0 557 -416v-35zM944 1081v35q0 184 -114.5 260t-352.5 76q-135 0 -223 -6v-715q126 -8 223 -8q242 0 354.5 83
t112.5 275zM1782 27q0 -28 -35 -33q-47 -6 -107 -6q-117 0 -174 48t-57 173v807h-203q-17 0 -28 9t-11 24v20q0 31 39 31h203v211q0 16 9.5 27.5t25.5 11.5h22q14 0 23.5 -11.5t9.5 -27.5v-211h244q39 0 39 -31v-20q0 -15 -11 -24t-28 -9h-244v-807q0 -86 33 -113.5
t108 -27.5h99q43 0 43 -29v-12zM2632 272q0 -79 -28 -136t-79 -88.5t-112 -45.5t-136 -14q-149 0 -297 28q-45 9 -45 33v23q0 35 45 28q196 -32 301 -32q59 0 103.5 9t81.5 30.5t56.5 63t19.5 101.5q0 63 -44 108t-174 116l-131 71q-65 35 -105 62t-75 62t-51 75.5t-16 91.5
q0 55 17 99t46 72t70 46.5t85 26.5t95 8q135 0 293 -18q43 -6 43 -35v-17q0 -36 -43 -32q-194 22 -285 22q-112 0 -171.5 -36t-59.5 -136q0 -63 46.5 -108.5t151.5 -104.5l138 -76q141 -78 200.5 -140t59.5 -157z" />
    <glyph glyph-name="Euro" unicode="&#x20ac;" 
d="M1067 43q0 -14 -12 -23.5t-27 -11.5q-8 -1 -40.5 -5.5t-56.5 -7t-77 -5t-119 -2.5q-78 0 -150 17.5t-143.5 60t-125 107t-88.5 167t-40 231.5h-90q-17 0 -27 9t-10 24v19q0 15 11.5 23.5t29.5 8.5h86v219h-90q-17 0 -27 9t-10 24v19q0 15 11.5 23.5t29.5 8.5h86
q6 127 41.5 227.5t89 164t124.5 106t143 59.5t149 17q65 0 118.5 -2.5t78 -5.5t55.5 -7.5t41 -5.5q15 -2 27 -11t12 -23v-25q0 -25 -27 -25h-12q-176 19 -293 19q-85 0 -161 -27t-141 -82.5t-106.5 -153t-47.5 -225.5h673q16 0 26.5 -7t10.5 -19v-6l-4 -19q-7 -33 -41 -33
h-665v-219h608q15 0 26 -7t11 -19v-6l-4 -19q-7 -33 -41 -33h-600q6 -131 46.5 -229.5t106 -155.5t141.5 -84.5t162 -27.5q127 0 293 18h12q27 0 27 -24v-25z" />
    <glyph glyph-name="afii61289" unicode="&#x2113;" horiz-adv-x="806" 
d="M662 1352q0 71 -40.5 118.5t-121.5 47.5q-91 0 -124.5 -62.5t-33.5 -216.5v-483q88 97 138.5 159.5t96.5 137.5t65.5 146t19.5 153zM63 494l189 176v569q0 180 58.5 266t189.5 86q128 0 190 -68.5t62 -170.5q0 -89 -31 -180t-92.5 -183.5t-127 -171.5t-159.5 -178v-365
q0 -109 37 -156.5t108 -47.5q99 0 197 75q30 23 55 -2l6 -6q19 -26 -2 -47q-52 -52 -123 -79t-131 -27q-125 0 -181 73t-56 215v283l-129 -119q-13 -11 -28 -12t-25 10l-9 10q-21 27 2 50z" />
    <glyph glyph-name="trademark" unicode="&#x2122;" horiz-adv-x="1568" 
d="M1477 705q0 -9 -6 -15t-15 -6h-37q-8 0 -13 6t-5 15v522q0 50 -2.5 80.5t-12.5 58.5t-26.5 42.5t-47 25.5t-71.5 14.5t-102 3.5v-747q0 -8 -5 -14.5t-14 -6.5h-39q-20 0 -20 21v747q-130 0 -262 -16v-731q0 -8 -5 -14.5t-14 -6.5h-37q-20 0 -20 21v778q0 16 16 20
q189 23 363 23q62 0 104.5 -2.5t85 -10t69.5 -21t51 -35.5t37 -54t20.5 -75t7.5 -101v-522zM643 1477q0 -16 -11.5 -23.5t-25.5 -7.5h-219v-727q0 -13 -10.5 -24t-24.5 -11h-10q-14 0 -23.5 11t-9.5 24v727h-223q-35 0 -35 31v10q0 14 10.5 23.5t24.5 9.5h520
q14 0 25.5 -9.5t11.5 -23.5v-10z" />
    <glyph glyph-name="Omega" unicode="&#x2126;" horiz-adv-x="1261" 
d="M631 1532q117 0 211 -37t165 -113.5t109.5 -202t38.5 -292.5v-49q0 -253 -87 -405.5t-241 -207.5v-141h303q17 0 28 -9t11 -24v-16q0 -15 -11 -25t-28 -10h-346q-22 0 -33.5 11t-12.5 21l-1 11v215q0 17 5 25t24 12q299 78 299 543v49q0 123 -21.5 218.5t-59.5 159
t-93.5 105t-119 59t-140.5 17.5t-140.5 -17.5t-119 -59t-93.5 -105t-59.5 -159t-21.5 -218.5v-49q0 -465 299 -543q19 -4 23.5 -12t4.5 -25v-215q0 -5 -1 -12t-12.5 -19t-33.5 -12h-346q-17 0 -28 10t-11 25v16q0 15 11 24t28 9h303v141q-154 55 -241 207.5t-87 405.5v49
q0 167 38.5 292.5t110 202t165.5 113.5t211 37z" />
    <glyph glyph-name="estimated" unicode="&#x212e;" horiz-adv-x="1241" 
d="M1182 578h-879v-396q135 -129 311 -129q67 0 124.5 14.5t99.5 36.5t81 58t66.5 70t58.5 81l64 -39q-43 -67 -87 -115.5t-103 -89.5t-135 -62t-169 -21q-163 0 -291 81.5t-196 216.5t-68 296q0 164 67 298t197 215t300 81q169 0 298 -82.5t195 -217t66 -296.5zM936 645
v334q-59 54 -143.5 90.5t-169.5 36.5q-196 0 -320 -127v-334h633z" />
    <glyph glyph-name="onethird" unicode="&#x2153;" horiz-adv-x="1370" 
d="M1061 1511q0 -10 -12 -28l-844 -1444q-13 -23 -21 -31t-22 -8h-56q-16 0 -16 12t10 27l844 1444q13 23 21 31t22 8h57q17 0 17 -11zM215 1448v-731q0 -37 33 -37h16q33 0 33 37v776q0 22 -8 32.5t-35 6.5l-156 -23q-18 -4 -27.5 -11.5t-9.5 -27.5q0 -22 9 -31.5t32 -6.5z
M1225 264v-22q0 -95 -50 -135.5t-155 -40.5q-48 0 -158 12q-10 1 -19 0.5t-14.5 -6.5t-5.5 -19v-8q0 -11 1.5 -17t9 -12t22.5 -8q79 -14 164 -14q142 0 215.5 57.5t73.5 190.5v22q0 51 -22 100t-75 78q97 61 97 183v14q0 122 -71.5 168.5t-217.5 46.5q-85 0 -164 -14
q-15 -2 -22.5 -8t-9 -12t-1.5 -17v-8q0 -18 10 -22.5t29 -2.5q110 12 158 12q108 0 156.5 -31t48.5 -112v-14q0 -23 -5.5 -44t-19 -44.5t-43 -37.5t-72.5 -14h-206q-37 0 -37 -34v-9q0 -34 37 -34h206q140 0 140 -144z" />
    <glyph glyph-name="twothirds" unicode="&#x2154;" horiz-adv-x="1542" 
d="M1233 1511q0 -10 -12 -28l-844 -1444q-13 -23 -21 -31t-22 -8h-55q-17 0 -17 12t10 27l844 1444q13 23 21 31t22 8h58q16 0 16 -11zM1397 264v-22q0 -95 -50 -135.5t-155 -40.5q-48 0 -158 12q-10 1 -19 0.5t-14.5 -6.5t-5.5 -19v-8q0 -11 1.5 -17t9 -12t22.5 -8
q79 -14 164 -14q142 0 215.5 57.5t73.5 190.5v22q0 51 -22 100t-75 78q97 61 97 183v14q0 122 -71.5 168.5t-217.5 46.5q-85 0 -164 -14q-15 -2 -22.5 -8t-9 -12t-1.5 -17v-8q0 -18 10 -22.5t29 -2.5q110 12 158 12q108 0 156.5 -31t48.5 -112v-14q0 -23 -5.5 -44t-19 -44.5
t-43 -37.5t-72.5 -14h-206q-37 0 -37 -34v-9q0 -34 37 -34h206q140 0 140 -144zM119 1452q-12 -1 -21 -0.5t-14.5 6.5t-5.5 19v6q0 20 7.5 28t31.5 11q80 12 166 12q272 0 272 -191q0 -68 -33 -124.5t-123 -116.5l-112 -76q-91 -61 -117.5 -112t-26.5 -128v-28h365
q15 0 26 -9t11 -24v-12q0 -33 -37 -33h-410q-16 0 -26.5 12t-10.5 27v67q0 93 35.5 161.5t143.5 142.5l112 77q70 48 94.5 82t24.5 94q0 119 -188 119q-69 0 -164 -10z" />
    <glyph glyph-name="oneeighth" unicode="&#x215b;" horiz-adv-x="1368" 
d="M1061 1511q0 -10 -12 -28l-844 -1444q-13 -23 -21 -31t-22 -8h-56q-16 0 -16 12t10 27l844 1444q13 23 21 31t22 8h57q17 0 17 -11zM215 1448v-731q0 -37 33 -37h16q33 0 33 37v776q0 22 -8 32.5t-35 6.5l-156 -23q-18 -4 -27.5 -11.5t-9.5 -27.5q0 -22 9 -31.5t32 -6.5z
M1307 231q0 -117 -74.5 -177t-198.5 -60q-125 0 -199.5 60t-74.5 177v35q0 47 25 96.5t75 79.5q-47 26 -73.5 72t-26.5 100v25q0 110 73 162.5t201 52.5q126 0 199.5 -53t73.5 -162v-25q0 -54 -27 -100t-74 -72q50 -30 75.5 -79.5t25.5 -96.5v-35zM1223 231v35q0 19 -7 41
t-22.5 45.5t-46 38.5t-70.5 15h-90q-40 0 -69.5 -15t-44.5 -38.5t-22 -45.5t-7 -41v-35q0 -78 49 -118.5t141 -40.5q91 0 140 40.5t49 118.5zM1223 614v25q0 137 -189 137q-190 0 -190 -137v-25q0 -51 33 -89t110 -38h90q78 0 112 38t34 89z" />
    <glyph glyph-name="threeeighths" unicode="&#x215c;" horiz-adv-x="1523" 
d="M1217 1511q0 -9 -13 -28l-844 -1444q-13 -23 -21 -31t-22 -8h-55q-16 0 -16 12t10 27l844 1444q13 23 21 31t22 8h57q17 0 17 -11zM1462 231q0 -117 -74 -177t-198 -60q-125 0 -200 60t-75 177v35q0 47 25.5 96.5t75.5 79.5q-47 26 -74 72t-27 100v25q0 110 73.5 162.5
t201.5 52.5q126 0 199 -53t73 -162v-25q0 -54 -26.5 -100t-73.5 -72q50 -30 75 -79.5t25 -96.5v-35zM1378 231v35q0 19 -7 41t-22 45.5t-45.5 38.5t-70.5 15h-90q-40 0 -70 -15t-45 -38.5t-22 -45.5t-7 -41v-35q0 -78 49 -118.5t142 -40.5q91 0 139.5 40.5t48.5 118.5z
M1378 614v25q0 137 -188 137q-191 0 -191 -137v-25q0 -50 33.5 -88.5t110.5 -38.5h90q78 0 111.5 38t33.5 89zM463 944v-22q0 -95 -50 -136t-155 -41q-39 0 -158 13q-10 1 -19 0.5t-14.5 -6.5t-5.5 -19v-8q0 -11 1.5 -17t9 -12t22.5 -8q79 -14 164 -14q142 0 215.5 57.5
t73.5 190.5v22q0 125 -96 178q96 60 96 183v14q0 122 -71.5 168.5t-217.5 46.5q-85 0 -164 -14q-15 -2 -22.5 -8t-9 -12t-1.5 -17v-8q0 -18 10 -22.5t29 -2.5q110 12 158 12q108 0 156.5 -31t48.5 -112v-14q0 -23 -5 -44t-18.5 -44.5t-43 -37.5t-72.5 -14h-207
q-37 0 -37 -35v-8q0 -35 37 -35h207q139 0 139 -143z" />
    <glyph glyph-name="fiveeighths" unicode="&#x215d;" horiz-adv-x="1542" 
d="M1235 1511q0 -10 -12 -28l-844 -1444q-13 -23 -21 -31t-22 -8h-55q-17 0 -17 12t10 27l844 1444q13 23 21 31t22 8h58q16 0 16 -11zM1481 231q0 -117 -74.5 -177t-198.5 -60q-125 0 -199.5 60t-74.5 177v35q0 47 25 96.5t75 79.5q-47 26 -73.5 72t-26.5 100v25
q0 110 73 162.5t201 52.5q126 0 199.5 -53t73.5 -162v-25q0 -54 -27 -100t-74 -72q50 -30 75.5 -79.5t25.5 -96.5v-35zM1397 231v35q0 19 -7 41t-22.5 45.5t-46 38.5t-70.5 15h-90q-40 0 -69.5 -15t-44.5 -38.5t-22 -45.5t-7 -41v-35q0 -78 49 -118.5t141 -40.5
q91 0 140 40.5t49 118.5zM1397 614v25q0 137 -189 137q-190 0 -190 -137v-25q0 -51 33 -89t110 -38h90q78 0 112 38t34 89zM264 745q104 0 161.5 50t57.5 145v8q0 97 -60 131.5t-208 34.5h-96q-21 0 -29.5 8.5t-7.5 34.5l22 340q4 35 39 35h361q15 0 26 -9.5t11 -25.5v-12
q0 -33 -37 -33h-320l-16 -260h61q173 0 254.5 -54.5t81.5 -189.5v-8q0 -128 -82.5 -197t-218.5 -69q-91 0 -170 14q-15 2 -22.5 8t-9 12t-1.5 17v8q0 18 10 22.5t29 2.5q119 -13 164 -13z" />
    <glyph glyph-name="seveneighths" unicode="&#x215e;" horiz-adv-x="1411" 
d="M1104 1511q0 -10 -12 -28l-844 -1444q-13 -23 -21 -31t-22 -8h-55q-17 0 -17 12t10 27l844 1444q13 23 21 31t22 8h57q17 0 17 -11zM1350 231q0 -117 -74.5 -177t-198.5 -60q-125 0 -199.5 60t-74.5 177v35q0 47 25 96.5t75 79.5q-47 26 -73.5 72t-26.5 100v25
q0 110 73 162.5t201 52.5q126 0 199.5 -53t73.5 -162v-25q0 -54 -27 -100t-74 -72q50 -30 75.5 -79.5t25.5 -96.5v-35zM1266 231v35q0 19 -7 41t-22.5 45.5t-46 38.5t-70.5 15h-90q-40 0 -69.5 -15t-44.5 -38.5t-22 -45.5t-7 -41v-35q0 -78 49 -118.5t141 -40.5
q91 0 140 40.5t49 118.5zM1266 614v25q0 137 -189 137q-190 0 -190 -137v-25q0 -51 33 -89t110 -38h90q78 0 112 38t34 89zM156 733l340 707q5 10 -9 10h-387q-16 0 -27.5 9.5t-11.5 25.5v8q0 15 12 27t27 12h437q36 0 51 -26.5t-2 -63.5l-346 -727q-9 -18 -17 -26.5
t-22 -8.5h-29q-41 0 -16 53z" />
    <glyph glyph-name="partialdiff" unicode="&#x2202;" horiz-adv-x="1101" 
d="M262 1509q-36 -6 -41 21l-2 10q-7 35 33 43q102 21 215 21q143 0 246 -42t164 -123t89.5 -188t28.5 -247q0 -218 -47 -504q-40 -244 -162 -378t-335 -134q-181 0 -270 97.5t-89 268.5q0 68 8 123l23 144q42 253 166 371t338 118q81 0 157.5 -30.5t126.5 -92.5v17
q0 88 -9 156.5t-37 140t-75 118.5t-129 77t-194 30q-113 0 -205 -17zM854 477l23 144q12 74 12 137q0 134 -64.5 203t-212.5 69q-336 0 -399 -409l-23 -144q-10 -75 -10 -123q0 -286 275 -286q173 0 269 105.5t130 303.5z" />
    <glyph glyph-name="Delta" unicode="&#x2206;" horiz-adv-x="1267" 
d="M1186 51q6 -23 -1 -37t-28 -14h-1046q-20 0 -27.5 14.5t-1.5 36.5l420 1381q14 47 48.5 73.5t84.5 26.5q49 0 83 -26t48 -72zM1079 90l-397 1319q-12 41 -47 41q-37 0 -47 -39l-400 -1321h891z" />
    <glyph glyph-name="product" unicode="&#x220f;" horiz-adv-x="1427" 
d="M141 1522h1145q17 0 28 -9t11 -24v-16q0 -15 -11 -25t-28 -10h-125v-1512q0 -16 -9.5 -27.5t-25.5 -11.5h-18q-16 0 -25.5 11.5t-9.5 27.5v1512h-717v-1512q0 -16 -9.5 -27.5t-24.5 -11.5h-21q-15 0 -25 12t-10 27v1512h-125q-17 0 -28 10t-11 25v16q0 15 11 24t28 9z
" />
    <glyph glyph-name="summation" unicode="&#x2211;" horiz-adv-x="1032" 
d="M588 705q0 39 -23 73l-362 641q-5 7 -3 13t9 6h682q17 0 28 8.5t11 23.5v17q0 15 -11 25t-28 10h-692q-51 0 -75 -26t-21.5 -57.5t18.5 -58.5l368 -647q9 -15 9 -28q0 -14 -9 -29l-368 -647q-16 -27 -18.5 -58.5t21.5 -57.5t75 -26h692q17 0 28 10t11 25v17
q0 15 -11 23.5t-28 8.5h-682q-7 0 -9 5.5t3 13.5l362 641q23 35 23 74z" />
    <glyph glyph-name="minus" unicode="&#x2212;" 
d="M1051 791q0 -33 -41 -33h-830q-41 0 -41 33v20q0 33 41 33h830q41 0 41 -33v-20z" />
    <glyph glyph-name="uni2215" unicode="&#x2215;" horiz-adv-x="622" 
d="M805 1511q0 -10 -12 -28l-856 -1456q-13 -23 -21 -31t-22 -8h-56q-16 0 -16 12t10 27l856 1456q13 23 21 31t22 8h57q17 0 17 -11z" />
    <glyph glyph-name="uni2219" unicode="&#x2219;" horiz-adv-x="344" 
d="M217 737q0 -17 -11.5 -28t-27.5 -11h-12q-16 0 -27.5 11t-11.5 28v152q0 15 12 27t27 12h12q15 0 27 -12t12 -27v-152z" />
    <glyph glyph-name="radical" unicode="&#x221a;" horiz-adv-x="1507" 
d="M1399 1735l-555 -1792q-12 -38 -42 -63t-65 -25q-52 0 -72 20t-32 68l-223 897q-2 11 -6 18t-15.5 13t-30.5 6h-217q-17 0 -28 9.5t-11 24.5v17q0 15 11 24t28 9h217q62 0 94.5 -20t45.5 -75l227 -903q3 -12 12 -12q10 0 13 12l555 1786q9 39 55 39h14q19 0 25.5 -9
t-0.5 -44z" />
    <glyph glyph-name="infinity" unicode="&#x221e;" horiz-adv-x="1415" 
d="M1231 743v52q0 66 -4 116t-20 111.5t-43.5 101.5t-78.5 67.5t-122 27.5h-13q-132 0 -205 -121q-109 119 -264 119h-12q-287 0 -287 -424v-52q0 -53 3 -96t12 -95t27.5 -90.5t47 -72.5t74.5 -52t105 -18h12q130 0 199 117q103 -115 268 -115h12q71 0 124.5 27t84 68.5
t49.5 100.5t25 112.5t6 115.5zM696 510q19 49 33 137l39 260q18 118 66 178t116 60h13q40 0 70.5 -12.5t50 -38.5t32 -55t18 -73t7.5 -81.5t2 -89.5v-52q0 -75 -8.5 -132.5t-29.5 -109.5t-62 -80t-101 -28h-12q-134 0 -234 117zM481 1143q53 0 113.5 -29t114.5 -94
q-13 -39 -23 -98l-37 -260q-40 -271 -186 -271h-12q-48 0 -82.5 20t-53 50t-29.5 79.5t-13.5 93.5t-2.5 107v52q0 59 4.5 106.5t18 94.5t35 78.5t57.5 51t84 19.5h12z" />
    <glyph glyph-name="integral" unicode="&#x222b;" horiz-adv-x="847" 
d="M379 -170v1460q0 128 59 185t172 57q66 0 107 -6q39 -5 39 -33v-14q0 -27 -43 -27h-103q-74 0 -107.5 -36t-33.5 -126v-1460q0 -128 -59 -185t-172 -57q-66 0 -107 6q-39 5 -39 33v15q0 26 43 26h103q74 0 107.5 36t33.5 126z" />
    <glyph glyph-name="approxequal" unicode="&#x2248;" horiz-adv-x="1005" 
d="M817 1063q0 -92 -42.5 -139t-117.5 -47q-81 0 -137 53l-98 96q-21 21 -32 30.5t-29 18t-37 8.5q-40 0 -62 -24t-22 -84v-53q0 -18 -4 -25.5t-17 -7.5h-35q-13 0 -17.5 7.5t-4.5 25.5v53q0 92 43 139t119 47q79 0 135 -53l98 -96q58 -58 100 -58q40 0 61 24t21 85v53
q0 18 4 25.5t17 7.5h35q13 0 17.5 -7.5t4.5 -25.5v-53zM817 653q0 -92 -42.5 -139t-117.5 -47q-81 0 -137 53l-98 96q-22 22 -32 31t-28.5 18t-37.5 9q-40 0 -62 -24t-22 -85v-53q0 -18 -4 -25.5t-17 -7.5h-35q-13 0 -17.5 7.5t-4.5 25.5v53q0 92 43.5 139.5t118.5 47.5
q78 0 135 -54l98 -96q57 -57 100 -57q40 0 61 23.5t21 84.5v54q0 18 4 25t17 7h35q13 0 17.5 -7t4.5 -25v-54z" />
    <glyph glyph-name="notequal" unicode="&#x2260;" 
d="M791 1532h30q18 0 22.5 -13.5t-1.5 -25.5l-148 -444h275q41 0 41 -33v-21q0 -32 -41 -32h-303l-105 -324h408q41 0 41 -33v-20q0 -33 -41 -33h-437l-172 -526q0 -1 -1 -3q-4 -12 -6.5 -18t-10.5 -12t-20 -6h-39q-31 0 -19 39l172 526h-215q-41 0 -41 33v20q0 33 41 33
h244l106 324h-350q-41 0 -41 32v21q0 33 41 33h379l145 444q3 9 5.5 14t7.5 12t13 10t20 3z" />
    <glyph glyph-name="lessequal" unicode="&#x2264;" 
d="M883 326q0 -12 -11 -23l-14 -14q-8 -8 -20 -8q-16 0 -33 14l-545 446q-31 25 -31 60q0 34 31 59l545 447q17 14 33 14q12 0 20 -8l14 -15q11 -11 11 -22q0 -17 -17 -31l-542 -444l542 -445q17 -14 17 -30zM1051 33q0 -33 -41 -33h-830q-41 0 -41 33v20q0 33 41 33h830
q41 0 41 -33v-20z" />
    <glyph glyph-name="greaterequal" unicode="&#x2265;" 
d="M987 801q0 -35 -31 -60l-544 -446q-18 -14 -33 -14q-13 0 -21 8l-14 14q-10 10 -10 23q0 17 16 30l543 445l-543 444q-16 13 -16 31q0 12 10 22l14 15q8 8 21 8q15 0 33 -14l544 -447q31 -25 31 -59zM1051 33q0 -33 -41 -33h-830q-41 0 -41 33v20q0 33 41 33h830
q41 0 41 -33v-20z" />
    <glyph glyph-name="lozenge" unicode="&#x25ca;" horiz-adv-x="1245" 
d="M623 231q25 0 48.5 17t55.5 57l252 313q53 63 53 115q0 53 -53 117l-258 324q-42 53 -98 53q-57 0 -99 -53l-258 -324q-53 -64 -53 -117q0 -52 53 -115l252 -313q59 -74 105 -74zM623 1139q18 0 41 -29l254 -322q24 -34 24 -57q0 -26 -29 -63l-245 -308q-26 -38 -45 -38
t-45 38l-246 308q-29 37 -29 63q0 21 25 57l254 322q23 29 41 29z" />
    <glyph glyph-name="j.dotless" unicode="&#xe008;" horiz-adv-x="417" 
d="M440 1071v-10l-217 -1237q-23 -127 -77 -175t-173 -48q-39 0 -86 6q-28 5 -28 24v4l2 19q2 14 8.5 19t26.5 5h90q72 0 101 27.5t46 118.5l217 1237q3 16 14.5 27.5t26.5 11.5h23q26 0 26 -29z" />
    <glyph glyph-name="uni2014.alt" unicode="&#xe009;" horiz-adv-x="1439" 
d="M1317 559q0 -15 -11 -24t-28 -9h-1116q-17 0 -28 9t-11 24v16q0 15 11 26t28 11h1116q17 0 28 -11t11 -26v-16z" />
    <glyph glyph-name="zero.fitted" unicode="&#xf639;" 
d="M1065 559q0 -288 -124 -429.5t-347 -141.5t-347 141.5t-124 429.5v404q0 288 124 428.5t347 140.5t347 -140.5t124 -428.5v-404zM975 559v404q0 241 -97.5 364t-283.5 123t-283.5 -123t-97.5 -364v-404q0 -241 97.5 -365t283.5 -124t283.5 124t97.5 365z" />
    <glyph glyph-name="two.fitted" unicode="&#xf63a;" 
d="M1024 1174q0 -117 -59 -202.5t-217 -191.5l-209 -141q-65 -44 -112.5 -83.5t-78.5 -78t-49.5 -72t-28 -75.5t-12 -77t-2.5 -87v-82h709q41 0 41 -31v-22q0 -31 -41 -31h-760q-18 0 -29.5 12.5t-11.5 28.5v125q0 83 11 145t43.5 130.5t97 134t165.5 133.5l209 141
q139 94 187.5 160t48.5 164q0 140 -88 206t-289 66q-152 0 -313 -31q-19 -3 -31 5t-12 26v22q0 25 38 33q140 31 318 31q475 0 475 -358z" />
    <glyph glyph-name="three.fitted" unicode="&#xf63b;" 
d="M1016 422q0 -223 -133.5 -328.5t-374.5 -105.5q-153 0 -299 30q-15 3 -26 13.5t-11 23.5v13q0 39 41 32q160 -26 295 -26q213 0 312.5 82t99.5 266v41q0 44 -16 92t-48 94.5t-91.5 76.5t-135.5 30h-383q-17 0 -28 11t-11 26v14q0 17 11 27t28 10h383q68 0 121 20t84.5 50
t51.5 70.5t27 76.5t7 72v24q0 86 -25 142.5t-79 88.5t-127 45t-181 13q-105 0 -295 -31q-19 -3 -30 5.5t-11 27.5v16q0 13 11 23.5t26 13.5q177 31 299 31q124 0 213 -17t158 -58.5t103 -116t34 -183.5v-24q0 -109 -50.5 -199t-162.5 -139q57 -26 100 -67t66.5 -87.5t35 -91
t11.5 -86.5v-41z" />
    <glyph glyph-name="four.fitted" unicode="&#xf63c;" 
d="M1110 477q0 -16 -11.5 -25.5t-27.5 -9.5h-205v-403q0 -16 -9 -27.5t-23 -11.5h-25q-16 0 -24.5 11.5t-8.5 27.5v403h-567q-61 0 -96 31.5t-35 79.5q0 43 28 86l574 842q34 51 104 51q36 0 59 -24t23 -74v-906h205q16 0 27.5 -9t11.5 -23v-19zM776 528v893q0 17 -12 17
q-8 0 -21 -17l-559 -821q-20 -32 -20 -47q0 -25 45 -25h567z" />
    <glyph glyph-name="five.fitted" unicode="&#xf63d;" 
d="M1030 440q0 -218 -141 -335t-377 -117q-152 0 -315 37q-39 7 -39 38v23q0 35 43 25q154 -37 311 -37q207 0 317.5 92t110.5 274v52q0 177 -115 247t-379 70h-217q-20 0 -31.5 12.5t-9.5 32.5l48 633q1 15 13.5 25t26.5 10h668q17 0 29 -8.5t12 -24.5v-23q0 -28 -41 -28
h-620l-37 -545h159q165 0 279 -25t180.5 -77.5t95.5 -124.5t29 -174v-52z" />
    <glyph glyph-name="six.fitted" unicode="&#xf63e;" 
d="M131 999q0 282 125 407.5t377 125.5q99 0 167.5 -9.5t157.5 -29.5q46 -8 46 -37v-20q0 -37 -50 -27q-95 20 -161 28.5t-160 8.5q-215 0 -313.5 -101t-98.5 -346v-127q208 54 379 54q70 0 133.5 -12t123.5 -41t103.5 -73.5t70 -115t26.5 -160.5v-10q0 -264 -114 -395
t-359 -131q-230 0 -341.5 130.5t-111.5 399.5v481zM221 793v-275q0 -242 86.5 -345t276.5 -103t286.5 103.5t96.5 340.5v10q0 72 -21.5 128.5t-56.5 91.5t-84 57.5t-99 31.5t-106 9q-196 0 -379 -49z" />
    <glyph glyph-name="seven.fitted" unicode="&#xf63f;" horiz-adv-x="1085" 
d="M999 1405l-655 -1385q-3 -7 -15.5 -13.5t-21.5 -6.5h-31q-22 0 -28 17.5t4 37.5l647 1350q5 9 1 19t-15 10h-766q-18 0 -29.5 8.5t-11.5 23.5v17q0 15 12 27t29 12h811q48 0 69.5 -34t-0.5 -83z" />
    <glyph glyph-name="eight.fitted" unicode="&#xf640;" 
d="M1073 403q0 -104 -36 -184t-100.5 -130t-151 -75.5t-191.5 -25.5t-191.5 25.5t-151 75.5t-100.5 130t-36 184v62q0 60 21.5 121.5t71.5 120.5t120 90q-98 35 -155.5 122t-57.5 195v45q0 187 129 280t350 93t350 -93t129 -280v-45q0 -108 -57.5 -195t-155.5 -122
q70 -31 120 -90t71.5 -120.5t21.5 -121.5v-62zM977 1114v45q0 287 -383 287t-383 -287v-45q0 -37 8.5 -73t30 -72.5t54.5 -63.5t86 -44t120 -17h168q67 0 120 17t86 44t54.5 63.5t30 72.5t8.5 73zM977 403v62q0 31 -8 66.5t-29.5 76.5t-54 73t-86.5 53.5t-121 21.5h-168
q-67 0 -121 -21.5t-86.5 -53.5t-54 -73t-29.5 -76.5t-8 -66.5v-62q0 -161 99 -245t284 -84t284 84t99 245z" />
    </font>
</defs>
</svg>
